Вы используете незарегистрированную версию компонента "Вкладки"!

Поиск

2014 Tobias Christl - Wildern {ACT Music} [24-48]

2014 Tobias Christl - Wildern {ACT Music} [24-48]
Стили:
Издатель (лейбл):
Номер по каталогу:
ACT 9673-2
Носитель:
WEB
Формат:
PCM
Тип рипа:
tracks+.cue
Контейнер:
FLAC (*.flac)
Количество каналов:
2.0
Разрядность/ЧД:
24/48
Время звучания:
00:56:10
Наличие сканов:
да
Страна-производитель диска (релиза):
Germany
Релизёр (источник):
M0p94ok
Лог проверки качества
foobar2000 1.3.16 / Dynamic Range Meter 1.1.1
log date: 2018-12-16 17:16:26

--------------------------------------------------------------------------------
Analyzed: Tobias Christl, Peter Ehwald, Sebastian Müller, Matthias Akeo Nowak, Etienne Nillesen / Wildern
--------------------------------------------------------------------------------

DR         Peak         RMS     Duration Track
--------------------------------------------------------------------------------
DR12      -0.31 dB   -16.89 dB      7:04 01-Sound of Silence
DR10      -0.30 dB   -11.49 dB      4:27 02-Anywhere I Lay My Head
DR7       -0.30 dB   -10.02 dB      4:26 03-Take On Me
DR12      -0.28 dB   -14.00 dB      5:34 04-Video Games
DR11      -0.30 dB   -14.59 dB      5:53 05-Avalanche
DR9       -0.30 dB   -10.67 dB      4:25 06-Love Will Tear Us Apart
DR9       -0.30 dB   -12.92 dB      4:18 07-König von Deutschland
DR10      -0.28 dB   -13.68 dB      3:59 08-Toxic
DR9       -0.30 dB   -12.24 dB      3:09 09-Dead End Street
DR11      -0.30 dB   -14.63 dB      3:05 10-I Will
DR9       -0.30 dB   -14.45 dB      5:30 11-Blue Monday
DR12      -0.31 dB   -16.15 dB      4:22 12-Don't Talk (Put Your Head On My Shoulder)
--------------------------------------------------------------------------------

Number of tracks:  12
Official DR value: DR10

Samplerate:        48000 Hz
Channels:          2
Bits per sample:   24
Bitrate:           1429 kbps
Codec:             FLAC
================================================================================
Any questions - support@pro-jazz.com. Есть вопросы - support@pro-jazz.com
11:46
255
Нет комментариев. Ваш будет первым!