Вы используете незарегистрированную версию компонента "Вкладки"!

Поиск

2014 Till Bronner - The Movie Album {Verve, Universal} [CD]

2014 Till Bronner - The Movie Album {Verve, Universal} [CD]
Издатель (лейбл):
Доп. инфо:

Страна-изготовитель диска: EU
Год издания: 2014
Издатель (лейбл): Verve Records/Universal Music
Номер по каталогу: 3795977
Аудиокодек: FLAC (*.flac)
Тип рипа: tracks+.cue
Битрейт аудио: lossless
Продолжительность: 64:42
Источник (релизер): спасибо simpleman
Наличие сканов: да (сетевые)

Лог создания рипа
Exact Audio Copy V1.0 beta 3 from 29. August 2011
EAC extraction logfile from 27. January 2015, 19:30
Till Brönner / The Movie Album
Used drive  : HL-DT-STDVDRAM GH22NS70   Adapter: 3  ID: 0
Read mode               : Secure
Utilize accurate stream : Yes
Defeat audio cache      : Yes
Make use of C2 pointers : No
Read offset correction                      : 667
Overread into Lead-In and Lead-Out          : No
Fill up missing offset samples with silence : Yes
Delete leading and trailing silent blocks   : No
Null samples used in CRC calculations       : Yes
Used interface                              : Native Win32 interface for Win NT & 2000
Gap handling                                : Appended to previous track
Used output format              : User Defined Encoder
Selected bitrate                : 1024 kBit/s
Quality                         : High
Add ID3 tag                     : No
Command line compressor         : C:\Program Files (x86)\Exact Audio Copy\Flac\flac.exe
Additional command line options : -8 -V -T "artist=%artist%" -T "title=%title%" -T "album=%albumtitle%" -T "date=%year%" -T "tracknumber=%tracknr%" -T "genre=%genre%" %source%
TOC of the extracted CD
     Track |   Start  |  Length  | Start sector | End sector
    ---------------------------------------------------------
        1  |  0:00.00 |  3:49.44 |         0    |    17218
        2  |  3:49.44 |  5:02.52 |     17219    |    39920
        3  |  8:52.21 |  3:34.69 |     39921    |    56039
        4  | 12:27.15 |  4:31.29 |     56040    |    76393
        5  | 16:58.44 |  5:15.27 |     76394    |   100045
        6  | 22:13.71 |  4:07.54 |    100046    |   118624
        7  | 26:21.50 |  3:57.02 |    118625    |   136401
        8  | 30:18.52 |  4:32.69 |    136402    |   156870
        9  | 34:51.46 |  5:42.43 |    156871    |   182563
       10  | 40:34.14 |  5:27.57 |    182564    |   207145
       11  | 46:01.71 |  5:30.37 |    207146    |   231932
       12  | 51:32.33 |  4:42.73 |    231933    |   253155
       13  | 56:15.31 |  5:08.44 |    253156    |   276299
       14  | 61:24.00 |  3:18.56 |    276300    |   291205
Track  1
     Filename C:\ripping\01 - When You Wish Upon A Star.wav
     Pre-gap length  0:00:02.00
     Peak level 98.6 %
     Extraction speed 1.0 X
     Track quality 100.0 %
     Test CRC 9F0BEC06
     Copy CRC 9F0BEC06
     Accurately ripped (confidence 13)  [14178A4A]  (AR v2)
     Copy OK
Track  2
     Filename C:\ripping\02 - Run To You.wav
     Peak level 87.1 %
     Extraction speed 1.2 X
     Track quality 100.0 %
     Test CRC D49B0E06
     Copy CRC D49B0E06
     Accurately ripped (confidence 13)  [8A595D63]  (AR v2)
     Copy OK
Track  3
     Filename C:\ripping\03 - Stand By Me.wav
     Peak level 98.6 %
     Extraction speed 1.3 X
     Track quality 100.0 %
     Test CRC 4046D9C9
     Copy CRC 4046D9C9
     Accurately ripped (confidence 13)  [3699855F]  (AR v2)
     Copy OK
Track  4
     Filename C:\ripping\04 - Love Theme From Cinema Paradiso.wav
     Peak level 98.6 %
     Extraction speed 1.1 X
     Track quality 99.9 %
     Test CRC 83C6551F
     Copy CRC 83C6551F
     Accurately ripped (confidence 13)  [C9583DAB]  (AR v2)
     Copy OK
Track  5
     Filename C:\ripping\05 - Raindroops Keep Falling On My Head.wav
     Peak level 92.9 %
     Extraction speed 1.4 X
     Track quality 99.9 %
     Test CRC 4408A69B
     Copy CRC 4408A69B
     Accurately ripped (confidence 13)  [1D6E4710]  (AR v2)
     Copy OK
Track  6
     Filename C:\ripping\06 - Il Postino.wav
     Peak level 98.6 %
     Extraction speed 1.6 X
     Track quality 100.0 %
     Test CRC F29DB0EE
     Copy CRC F29DB0EE
     Accurately ripped (confidence 13)  [93371505]  (AR v2)
     Copy OK
Track  7
     Filename C:\ripping\07 - The Godfather Waltz , Love Theme From The Godfather.wav
     Peak level 98.6 %
     Extraction speed 1.4 X
     Track quality 99.9 %
     Test CRC AC34A6A5
     Copy CRC AC34A6A5
     Accurately ripped (confidence 13)  [2C68B58B]  (AR v2)
     Copy OK
Track  8
     Filename C:\ripping\08 - Moon River.wav
     Peak level 98.6 %
     Extraction speed 1.8 X
     Track quality 100.0 %
     Test CRC 5F09C9DE
     Copy CRC 5F09C9DE
     Accurately ripped (confidence 13)  [2F0B2721]  (AR v2)
     Copy OK
Track  9
     Filename C:\ripping\09 - Forbidden Colours.wav
     Peak level 98.6 %
     Extraction speed 1.9 X
     Track quality 100.0 %
     Test CRC AEFD6003
     Copy CRC AEFD6003
     Accurately ripped (confidence 13)  [B10C541D]  (AR v2)
     Copy OK
Track 10
     Filename C:\ripping\10 - As Time Goes By.wav
     Peak level 98.6 %
     Extraction speed 2.0 X
     Track quality 100.0 %
     Test CRC 12E85454
     Copy CRC 12E85454
     Accurately ripped (confidence 13)  [6C3EB525]  (AR v2)
     Copy OK
Track 11
     Filename C:\ripping\11 - Crockett's Theme.wav
     Peak level 99.9 %
     Extraction speed 2.1 X
     Track quality 100.0 %
     Test CRC 0FA5B6B6
     Copy CRC 0FA5B6B6
     Accurately ripped (confidence 13)  [EFF3DB4A]  (AR v2)
     Copy OK
Track 12
     Filename C:\ripping\12 - Mulholland Falls.wav
     Peak level 98.6 %
     Extraction speed 2.2 X
     Track quality 100.0 %
     Test CRC 244054C4
     Copy CRC 244054C4
     Accurately ripped (confidence 13)  [C9576F3B]  (AR v2)
     Copy OK
Track 13
     Filename C:\ripping\13 - My Heart Will Go On.wav
     Peak level 98.6 %
     Extraction speed 1.2 X
     Track quality 99.8 %
     Test CRC 2C5440D1
     Copy CRC 2C5440D1
     Accurately ripped (confidence 13)  [216BD25A]  (AR v2)
     Copy OK
Track 14
     Filename C:\ripping\14 - Happy.wav
     Peak level 98.6 %
     Extraction speed 2.2 X
     Track quality 100.0 %
     Test CRC F98CC1E5
     Copy CRC F98CC1E5
     Accurately ripped (confidence 13)  [4AFBAE01]  (AR v2)
     Copy OK
All tracks accurately ripped
No errors occurred
End of status report
---- CUETools DB Plugin V2.1.3
[CTDB TOCID: nMiQ4ASb.dNygyJtVqbzfZsxkdw-] found, Submit result: nMiQ4ASb.dNygyJtVqbzfZsxkdw- has been confirmed
[97cf8d13] (34/36) Accurately ripped
[c5b549ed] (01/36) No match
[9e986a44] (01/36) No match
==== Log checksum 72BA6609693AF936034F62FDC29606216127A8A1840D972477A2A9093E1A4541 ====
Содержание индексной карты (.CUE)
REM GENRE Jazz
REM DATE 2014
REM DISCID BD0F2A0E
REM COMMENT "ExactAudioCopy v1.0b3"
CATALOG 0602537959778
PERFORMER "Till Bronner"
TITLE "The Movie Album"
FILE "01 - When You Wish Upon A Star.wav" WAVE
  TRACK 01 AUDIO
    TITLE "When You Wish Upon A Star"
    PERFORMER "Till Bronner"
    ISRC DEUM71402955
    INDEX 01 00:00:00
FILE "02 - Run To You.wav" WAVE
  TRACK 02 AUDIO
    TITLE "Run To You"
    PERFORMER "Till Bronner"
    ISRC DEUM71403031
    INDEX 01 00:00:00
FILE "03 - Stand By Me.wav" WAVE
  TRACK 03 AUDIO
    TITLE "Stand By Me"
    PERFORMER "Till Bronner"
    ISRC DEUM71402954
    INDEX 01 00:00:00
FILE "04 - Love Theme From Cinema Paradiso.wav" WAVE
  TRACK 04 AUDIO
    TITLE "Love Theme From Cinema Paradiso"
    PERFORMER "Till Bronner"
    ISRC DEUM71402946
    INDEX 01 00:00:00
FILE "05 - Raindroops Keep Falling On My Head.wav" WAVE
  TRACK 05 AUDIO
    TITLE "Raindroops Keep Falling On My Head"
    PERFORMER "Till Bronner"
    ISRC DEUM71402953
    INDEX 01 00:00:00
FILE "06 - Il Postino.wav" WAVE
  TRACK 06 AUDIO
    TITLE "Il Postino"
    PERFORMER "Till Bronner"
    ISRC DEUM71402943
    INDEX 01 00:00:00
FILE "07 - The Godfather Waltz, Love Theme From The Godfather.wav" WAVE
  TRACK 07 AUDIO
    TITLE "The Godfather Waltz, Love Theme From The Godfather"
    PERFORMER "Till Bronner"
    ISRC DEUM71402956
    INDEX 01 00:00:00
FILE "08 - Moon River.wav" WAVE
  TRACK 08 AUDIO
    TITLE "Moon River"
    PERFORMER "Till Bronner"
    ISRC DEUM71402950
    INDEX 01 00:00:00
FILE "09 - Forbidden Colours.wav" WAVE
  TRACK 09 AUDIO
    TITLE "Forbidden Colours"
    PERFORMER "Till Bronner"
    ISRC DEUM71402947
    INDEX 01 00:00:00
FILE "10 - As Time Goes By.wav" WAVE
  TRACK 10 AUDIO
    TITLE "As Time Goes By"
    PERFORMER "Till Bronner"
    ISRC DEUM71402945
    INDEX 01 00:00:00
FILE "11 - Crockett's Theme.wav" WAVE
  TRACK 11 AUDIO
    TITLE "Crockett's Theme"
    PERFORMER "Till Bronner"
    ISRC DEUM71402949
    INDEX 01 00:00:00
FILE "12 - Mulholland Falls.wav" WAVE
  TRACK 12 AUDIO
    TITLE "Mulholland Falls"
    PERFORMER "Till Bronner"
    ISRC DEUM71402951
    INDEX 01 00:00:00
FILE "13 - My Heart Will Go On.wav" WAVE
  TRACK 13 AUDIO
    TITLE "My Heart Will Go On"
    PERFORMER "Till Bronner"
    ISRC DEUM71402944
    INDEX 01 00:00:00
FILE "14 - Happy.wav" WAVE
  TRACK 14 AUDIO
    TITLE "Happy"
    PERFORMER "Till Bronner"
    ISRC DEUM71402948
    INDEX 01 00:00:00
Any questions - support@pro-jazz.com. Есть вопросы - support@pro-jazz.com
09:10
223
Нет комментариев. Ваш будет первым!