Поиск

2014 The Vanguard Jazz Orchestra - Overtime: Music Of Bob Brookmeyer {Planet Arts 101413} [CD]

2014 The Vanguard Jazz Orchestra - Overtime: Music Of Bob Brookmeyer {Planet Arts 101413} [CD]
Треклист:

01. The Big Time (04:01)
02. Oatts (05:57)
03. Scott (06:39)
04. Rich (05:42)
05. XYZ (14:33)
06. Skylark (07:45)
07. At The Corner Of Ralph And Gary (11:09)
08. Sad Song (10:37)

Состав:

TRUMPETS/FLUGELHORNS

  • Nick Marchione, Tanya Darby, Terell Stafford, Scott Wendholt
  • TROMBONES
  • John Mosca, Luis Bonilla, Jason Jackson (bass & tenor trombone)
  • Douglas Purviance (bass trombone)

REEDS

  • Dick Oatts (alto & soprano saxophones, flute)
  • Billy Drewes (alto & soprano saxophones, flute)
  • Rich Perry (tenor saxophone, flute)
  • Ralph LaLama (tenor saxophone, flute, clarinet)
  • Gary Smulyan (baritone saxophone)

RHYTHM SECTION

  • Jim McNeely (piano)
  • John Riley (drums)
  • David Wong (bass)
  • Frank Basile (bass clarinet) on Scott, XYZ and Sad Song;
  • David Peel (french horn) on The Big Time, Skylark, XYZ and Sad Song
  • Mike Truesdell (percussion) on The Big Time, XYZ and Sad Song

Жанр: Big Band, Post-Bop, Contemporary Jazz
Носитель: CD
Год издания: 2014
Издатель (лейбл): Planet Arts Recordings
Номер по каталогу: 101413
Аудиокодек: FLAC (*.flac)
Тип рипа: tracks+.cue
Битрейт аудио: lossless
Продолжительность: 01:06:25
Источник: www
Наличие сканов в содержимом раздачи: нет

Лог создания рипа
Exact Audio Copy V1.3 from 2. September 2016

EAC extraction logfile from 4. February 2019, 11:48

The Vanguard Jazz Orchestra / OverTime

Used drive  : TSSTcorpDVD+-RW SN-208BB   Adapter: 1  ID: 0

Read mode               : Secure
Utilize accurate stream : Yes
Defeat audio cache      : Yes
Make use of C2 pointers : No

Read offset correction                      : 6
Overread into Lead-In and Lead-Out          : No
Fill up missing offset samples with silence : Yes
Delete leading and trailing silent blocks   : No
Null samples used in CRC calculations       : Yes
Used interface                              : Native Win32 interface for Win NT & 2000
Gap handling                                : Appended to previous track

Used output format              : User Defined Encoder
Selected bitrate                : 1024 kBit/s
Quality                         : High
Add ID3 tag                     : No
Command line compressor         : C:\Program Files (x86)\Exact Audio Copy\FLAC\FLAC.EXE
Additional command line options : -8 -V -T "ARTIST=%artist%" -T "TITLE=%title%" -T "ALBUM=%albumtitle%" -T "DATE=%year%" -T "TRACKNUMBER=%tracknr%" -T "GENRE=%genre%" -T "PERFORMER=%albuminterpret%" -T "COMPOSER=%composer%" %haslyrics%--tag-from-file=LYRICS="%lyricsfile%"%haslyrics% -T "ALBUMARTIST=%albumartist%" -T "DISCNUMBER=%cdnumber%" -T "TOTALDISCS=%totalcds%" -T "TOTALTRACKS=%numtracks%" -T "COMMENT=%comment%" %source% -o %dest%

TOC of the extracted CD

     Track |   Start  |  Length  | Start sector | End sector
    ---------------------------------------------------------
        1  |  0:00.00 |  4:01.42 |         0    |    18116
        2  |  4:01.42 |  5:57.28 |     18117    |    44919
        3  |  9:58.70 |  6:39.28 |     44920    |    74872
        4  | 16:38.23 |  5:42.00 |     74873    |   100522
        5  | 22:20.23 | 14:33.12 |    100523    |   166009
        6  | 36:53.35 |  7:45.04 |    166010    |   200888
        7  | 44:38.39 | 11:09.43 |    200889    |   251106
        8  | 55:48.07 | 10:37.43 |    251107    |   298924

Track  1

     Filename Y:\FLAC\The Vanguard Jazz Orchestra - OverTime\01 The Big Time.wav

     Pre-gap length  0:00:02.00

     Peak level 95.1 %
     Extraction speed 1.2 X
     Track quality 100.0 %
     Test CRC 294CA1AF
     Copy CRC 294CA1AF
     Accurately ripped (confidence 6)  [7EA94DD6]  (AR v2)
     Copy OK

Track  2

     Filename Y:\FLAC\The Vanguard Jazz Orchestra - OverTime\02 Oatts.wav

     Peak level 95.6 %
     Extraction speed 1.4 X
     Track quality 100.0 %
     Test CRC 8C68BD64
     Copy CRC 8C68BD64
     Accurately ripped (confidence 6)  [5FB75CAE]  (AR v2)
     Copy OK

Track  3

     Filename Y:\FLAC\The Vanguard Jazz Orchestra - OverTime\03 Scott.wav

     Peak level 93.5 %
     Extraction speed 1.5 X
     Track quality 99.9 %
     Test CRC 0BC28B71
     Copy CRC 0BC28B71
     Accurately ripped (confidence 6)  [6F749AD6]  (AR v2)
     Copy OK

Track  4

     Filename Y:\FLAC\The Vanguard Jazz Orchestra - OverTime\04 Rich.wav

     Peak level 95.2 %
     Extraction speed 1.7 X
     Track quality 100.0 %
     Test CRC 4AE07439
     Copy CRC 4AE07439
     Accurately ripped (confidence 6)  [544DBE27]  (AR v2)
     Copy OK

Track  5

     Filename Y:\FLAC\The Vanguard Jazz Orchestra - OverTime\05 XYZ.wav

     Peak level 95.9 %
     Extraction speed 2.0 X
     Track quality 99.9 %
     Test CRC 90A8C712
     Copy CRC 90A8C712
     Accurately ripped (confidence 6)  [76DB7EE7]  (AR v2)
     Copy OK

Track  6

     Filename Y:\FLAC\The Vanguard Jazz Orchestra - OverTime\06 Skylark.wav

     Peak level 95.6 %
     Extraction speed 2.2 X
     Track quality 100.0 %
     Test CRC 8BADCE85
     Copy CRC 8BADCE85
     Accurately ripped (confidence 6)  [735CE94E]  (AR v2)
     Copy OK

Track  7

     Filename Y:\FLAC\The Vanguard Jazz Orchestra - OverTime\07 At The Corner Of Ralph And Gary.wav

     Peak level 96.9 %
     Extraction speed 2.4 X
     Track quality 100.0 %
     Test CRC 0BB732D8
     Copy CRC 0BB732D8
     Accurately ripped (confidence 6)  [94F00875]  (AR v2)
     Copy OK

Track  8

     Filename Y:\FLAC\The Vanguard Jazz Orchestra - OverTime\08 Sad Song.wav

     Peak level 94.6 %
     Extraction speed 2.6 X
     Track quality 100.0 %
     Test CRC AAAEAD72
     Copy CRC AAAEAD72
     Accurately ripped (confidence 6)  [69E08300]  (AR v2)
     Copy OK

All tracks accurately ripped

No errors occurred

End of status report

---- CUETools DB Plugin V2.1.6

[CTDB TOCID: wDYUOcUeA3NUVnR5tX17viqIzaY-] found
Submit result: wDYUOcUeA3NUVnR5tX17viqIzaY- has been confirmed
Track | CTDB Status
  1   | (8/8) Accurately ripped
  2   | (8/8) Accurately ripped
  3   | (8/8) Accurately ripped
  4   | (8/8) Accurately ripped
  5   | (8/8) Accurately ripped
  6   | (8/8) Accurately ripped
  7   | (8/8) Accurately ripped
  8   | (8/8) Accurately ripped

==== Log checksum 64CD90C9E33B1C3CE818B09A0418CB2117D185F873DF05E86F93AB23528635F5 ====
Содержание индексной карты (.CUE)
REM GENRE Jazz
REM DATE 2014
REM DISCID 410F9108
REM COMMENT "ExactAudioCopy v1.3"
PERFORMER "The Vanguard Jazz Orchestra"
TITLE "OverTime"
REM COMPOSER ""
FILE "01 The Big Time.wav" WAVE
  TRACK 01 AUDIO
    TITLE "The Big Time"
    PERFORMER "The Vanguard Jazz Orchestra"
    REM COMPOSER ""
    ISRC USZG31400021
    FLAGS DCP
    INDEX 01 00:00:00
FILE "02 Oatts.wav" WAVE
  TRACK 02 AUDIO
    TITLE "Oatts"
    PERFORMER "The Vanguard Jazz Orchestra"
    REM COMPOSER ""
    ISRC USZG31400022
    FLAGS DCP
    INDEX 01 00:00:00
FILE "03 Scott.wav" WAVE
  TRACK 03 AUDIO
    TITLE "Scott"
    PERFORMER "The Vanguard Jazz Orchestra"
    REM COMPOSER ""
    ISRC USZG31400023
    FLAGS DCP
    INDEX 01 00:00:00
FILE "04 Rich.wav" WAVE
  TRACK 04 AUDIO
    TITLE "Rich"
    PERFORMER "The Vanguard Jazz Orchestra"
    REM COMPOSER ""
    ISRC USZG31400024
    FLAGS DCP
    INDEX 01 00:00:00
FILE "05 XYZ.wav" WAVE
  TRACK 05 AUDIO
    TITLE "XYZ"
    PERFORMER "The Vanguard Jazz Orchestra"
    REM COMPOSER ""
    ISRC USZG31400025
    FLAGS DCP
    INDEX 01 00:00:00
FILE "06 Skylark.wav" WAVE
  TRACK 06 AUDIO
    TITLE "Skylark"
    PERFORMER "The Vanguard Jazz Orchestra"
    REM COMPOSER ""
    ISRC USZG31400026
    FLAGS DCP
    INDEX 01 00:00:00
FILE "07 At The Corner Of Ralph And Gary.wav" WAVE
  TRACK 07 AUDIO
    TITLE "At The Corner Of Ralph And Gary"
    PERFORMER "The Vanguard Jazz Orchestra"
    REM COMPOSER ""
    ISRC USZG31400027
    FLAGS DCP
    INDEX 01 00:00:00
FILE "08 Sad Song.wav" WAVE
  TRACK 08 AUDIO
    TITLE "Sad Song"
    PERFORMER "The Vanguard Jazz Orchestra"
    REM COMPOSER ""
    ISRC USZG31400028
    FLAGS DCP
    INDEX 01 00:00:00
По всем вопросам пишите личное сообщение пользователю M0p94ok.
20:06
511
Нет комментариев. Ваш будет первым!