Поиск

2014 Monty Alexander - Harlem-Kingston Express, Vol. 2 - The River Rolls On {Motéma Music} [CD]

2014 Monty Alexander - Harlem-Kingston Express, Vol. 2 - The River Rolls On {Motéma Music} [CD]
Стили:
Треклист:
Страна-производитель диска: USA
Год издания: 2014
Издатель (лейбл): Motéma Music
Номер по каталогу: MTM-138
Аудиокодек: FLAC (*.flac)
Тип рипа: tracks+.cue
Битрейт аудио: lossless
Продолжительность: 65:42
Источник (релизер): many thanks tdelyon
Наличие сканов в содержимом раздачи: да
Треклист:
1. Hurricane Come and Gone - Moonlight City
2. People Make the World Go Round
3. Concierto de Aranjuez
4. Sleaky
5. Trust
6. The Harder They Come
7. The River Rolls On (feat. Caterina Zapponi)
8. What's Going On (Wa'a Gwan)
9. Love Notes (feat. George Benson, Ramsey Lewis, Joe Sample)
10. Skamento
11. Linstead Market (Live)
12. Redemption Song (feat. Wendel Ferraro) [Live]
13. Regulator (Live)
Доп. инфо:

На протяжении своей карьеры, охватывающей шесть десятилетий, нью-йоркский артист Монти Александр завоевал признание за соединение американского джаза, популярной песни и музыки его родной Ямайки. Недавно газета "Нью-Йорк Таймс" назвала его "искрометным пианистом и одним из самых гордых музыкальных экспортеров Ямайки". Wall Street Journal поочередно назвал его "возможно, первым и, безусловно, самым успешным музыкантом, соединившим ямайскую музыку с североамериканским джазом" и сказал, что "смесь джаза и рэгги в исполнении Александра - это возмутительно хорошее времяпрепровождение". 8 апреля, накануне празднования 70-летия Александра, компания Motéma Music выпустит альбом Harlem-Kingston Express Vol. 2: The River Rolls On, который на сегодняшний день является наиболее органичной интеграцией двойного музыкального наследия Александра.

Несмотря на то, что он осуществил (казалось бы) простую музыкальную гибридизацию, одноименный первый релиз Harlem-Kingston Express не был концептуальным альбомом - по крайней мере, не намеренно. Запись появилась случайно: Это концерт 2011 года в клубе Dizzy's Club Coca Cola в Нью-Йорке, для которого Александр объединил свое джазовое трио с полной ямайской ритм-секцией, записанный для трансляции на Sirius XM. Яна Герцен, основательница Motéma Music, была настолько тронута этим альбомом, что организовала его выпуск на своем лейбле. Альбом стал одной из самых известных записей в обширном творческом наследии Александра, которое насчитывает более 70 записей с Александром в качестве лидера. Harlem-Kingston Express вызвал одинаково теплый прием со стороны поклонников регги и джаза, а также критиков, и был номинирован на премию GRAMMY 2012 года как лучший регги-альбом.

Для нового альбома Александр собрал группу для первой студийной записи - в основном в нью-йоркских студиях Avatar и Dubway. Помимо участников первого тома проекта - Александра (фортепиано), Хассана Шакура (акустический бас), Карла Райта и Обеда Кальвайера (ударные), Энди Бассфорда и Йотама Зильберштейна (гитары) - в сборнике участвуют клавишник Эрл Эпплтон, электробасист Джошуа Томас и перкуссионист Кортни Пантон. Они исполняют смесь оригинальных произведений Александра (которые сами по себе пропитаны как карибской музыкой, так и американским джазом и R&B) и интерпретаций классики, от соул-хитов "People Make the World Go Round" и "What's Going On" (здесь под псевдонимом "Wa'a Gwan") до регги-вехи Джимми Клиффа "The Harderer They Come". Жена Александра, франко-итальянская певица Катерина Заппони, присоединяется к нему и группе на заглавной композиции альбома.

В альбом также вошли "Love Notes" Александра с участием его друзей Джорджа Бенсона, Рэмси Льюиса и Джо Сэмпла; концертная версия песни Боба Марли "Redemption Song", записанная в 2005 году с вокалистом Венделом Ферраро; а также ранее не издававшиеся концертные записи ямайской народной песни "Linstead Market" и песни Александра "Regulator (Reggae-Later)", обе с оригинального концерта Harlem-Kingston Express 2011 года в Dizzy's Club Coca Cola.

Harlem-Kingston Express Vol. 2: The River Rolls On одновременно отражает текущий момент в уникальной карьере Александра и возвращает его на более ранние этапы: подростковые годы, когда он играл на сессиях под руководством пионеров регги Клемента "Коксона" Додда, Дюка Рида и Криса Блэквелла, и первые десятилетия его жизни в США, когда ему довелось записываться и выступать с такими иконами, как Фрэнк Синатра, Милт Джексон и Рэй Браун, и многими другими.

Лог создания рипа
Exact Audio Copy V1.0 beta 3 from 29. August 2011
EAC extraction logfile from 23. April 2014, 16:58
Monty Alexander / Harlem-Kingston Express Vol.2: The River Rolls On
Used drive  : PHILIPS SPD3400CC   Adapter: 3  ID: 0
Read mode               : Secure
Utilize accurate stream : Yes
Defeat audio cache      : Yes
Make use of C2 pointers : No
Read offset correction                      : 6
Overread into Lead-In and Lead-Out          : No
Fill up missing offset samples with silence : Yes
Delete leading and trailing silent blocks   : No
Null samples used in CRC calculations       : Yes
Used interface                              : Installed external ASPI interface
Gap handling                                : Appended to previous track
Used output format              : User Defined Encoder
Selected bitrate                : 1024 kBit/s
Quality                         : High
Add ID3 tag                     : No
Command line compressor         : C:\Program Files (x86)\Exact Audio Copy\FLAC\FLAC.EXE
Additional command line options : -8 -V -T "ARTIST=%artist%" -T "TITLE=%title%" -T "ALBUM=%albumtitle%" -T "DATE=%year%" -T "TRACKNUMBER=%tracknr%" -T "TOTALTRACKS=%numtracks%" -T "GENRE=%genre%" -T "ALBUM ARTIST=%albumartist%" -T "ALBUMARTIST=%albumartist%" -T "COMMENT=EAC V1.0 beta 3, Secure Mode, Test & Copy, AccurateRip, FLAC -8" %source%
TOC of the extracted CD
     Track |   Start  |  Length  | Start sector | End sector
    ---------------------------------------------------------
        1  |  0:00.00 |  6:04.37 |         0    |    27336
        2  |  6:04.37 |  4:15.42 |     27337    |    46503
        3  | 10:20.04 |  6:28.61 |     46504    |    75664
        4  | 16:48.65 |  4:12.46 |     75665    |    94610
        5  | 21:01.36 |  3:45.43 |     94611    |   111528
        6  | 24:47.04 |  5:46.29 |    111529    |   137507
        7  | 30:33.33 |  4:33.74 |    137508    |   158056
        8  | 35:07.32 |  5:05.30 |    158057    |   180961
        9  | 40:12.62 |  4:48.61 |    180962    |   202622
       10  | 45:01.48 |  4:41.21 |    202623    |   223718
       11  | 49:42.69 |  6:37.31 |    223719    |   253524
       12  | 56:20.25 |  4:56.23 |    253525    |   275747
       13  | 61:16.48 |  4:25.29 |    275748    |   295651
Track  1
     Filename C:\Rips\01 Hurricane Come and Gone , Moonlight City.wav
     Pre-gap length  0:00:02.00
     Peak level 98.6 %
     Extraction speed 2.0 X
     Track quality 100.0 %
     Test CRC 1CF048FB
     Copy CRC 1CF048FB
     Track not present in AccurateRip database
     Copy OK
Track  2
     Filename C:\Rips\02 People Make the World Go Round.wav
     Peak level 98.4 %
     Extraction speed 2.2 X
     Track quality 100.0 %
     Test CRC F8BABD7F
     Copy CRC F8BABD7F
     Track not present in AccurateRip database
     Copy OK
Track  3
     Filename C:\Rips\03 Concierto de Aranjuez.wav
     Peak level 97.2 %
     Extraction speed 2.6 X
     Track quality 100.0 %
     Test CRC D154B933
     Copy CRC D154B933
     Track not present in AccurateRip database
     Copy OK
Track  4
     Filename C:\Rips\04 Sleaky.wav
     Peak level 97.9 %
     Extraction speed 2.7 X
     Track quality 100.0 %
     Test CRC 1EFCCC80
     Copy CRC 1EFCCC80
     Track not present in AccurateRip database
     Copy OK
Track  5
     Filename C:\Rips\05 Trust.wav
     Peak level 97.1 %
     Extraction speed 2.8 X
     Track quality 100.0 %
     Test CRC 65F2EA39
     Copy CRC 65F2EA39
     Track not present in AccurateRip database
     Copy OK
Track  6
     Filename C:\Rips\06 The Harder They Come.wav
     Peak level 98.3 %
     Extraction speed 3.1 X
     Track quality 100.0 %
     Test CRC 2D00803D
     Copy CRC 2D00803D
     Track not present in AccurateRip database
     Copy OK
Track  7
     Filename C:\Rips\07 The River Rolls On.wav
     Peak level 93.8 %
     Extraction speed 3.2 X
     Track quality 100.0 %
     Test CRC B5BD330E
     Copy CRC B5BD330E
     Track not present in AccurateRip database
     Copy OK
Track  8
     Filename C:\Rips\08 Whats Going On (Wa'a gwan).wav
     Peak level 97.4 %
     Extraction speed 3.4 X
     Track quality 100.0 %
     Test CRC F2D7714F
     Copy CRC F2D7714F
     Track not present in AccurateRip database
     Copy OK
Track  9
     Filename C:\Rips\09 Love Notes.wav
     Peak level 97.3 %
     Extraction speed 2.8 X
     Track quality 99.9 %
     Test CRC 8A0560CB
     Copy CRC 8A0560CB
     Track not present in AccurateRip database
     Copy OK
Track 10
     Filename C:\Rips\10 Skamento.wav
     Peak level 97.8 %
     Extraction speed 3.6 X
     Track quality 100.0 %
     Test CRC BEEEBE77
     Copy CRC BEEEBE77
     Track not present in AccurateRip database
     Copy OK
Track 11
     Filename C:\Rips\11 Linstead Market - Live Bonus.wav
     Peak level 97.3 %
     Extraction speed 3.2 X
     Track quality 99.9 %
     Test CRC 0BA99E28
     Copy CRC 0BA99E28
     Track not present in AccurateRip database
     Copy OK
Track 12
     Filename C:\Rips\12 Redemption Song - Live Bonus.wav
     Peak level 97.4 %
     Extraction speed 3.9 X
     Track quality 100.0 %
     Test CRC 5817330E
     Copy CRC 5817330E
     Track not present in AccurateRip database
     Copy OK
Track 13
     Filename C:\Rips\13 Regulator (Reggae-later) - Live Bonus.wav
     Peak level 97.5 %
     Extraction speed 4.0 X
     Track quality 100.0 %
     Test CRC BD71428C
     Copy CRC BD71428C
     Track not present in AccurateRip database
     Copy OK
None of the tracks are present in the AccurateRip database
No errors occurred
End of status report
==== Log checksum C393967C9E7D87EF058709DB08F865F2CDF99F4B028F4C3061B25FE6563C50E8 ====
14:32
393
Нет комментариев. Ваш будет первым!