Вы используете незарегистрированную версию компонента "Вкладки"!

Поиск

2014 George Mraz & Emil Viklicky - Together Again {ACT Music} [24-96]

2014 George Mraz & Emil Viklicky - Together Again {ACT Music} [24-96]
Стили:
Дата записи диска:
16-17 января 2013
Место записи:
Realistic Sound Studio, Munich
Дата издания диска:
14 марта 2014
Издатель (лейбл):
Номер по каталогу:
ACT 9622-2
Носитель:
WEB
Формат:
PCM
Тип рипа:
tracks+.cue
Контейнер:
FLAC (*.flac)
Количество каналов:
2.0
Разрядность/ЧД:
24/96
Время звучания:
00:51:40
Наличие сканов:
да
Страна-производитель диска (релиза):
Germany
Релизёр (источник):
M0p94ok
Лог проверки качества
foobar2000 1.3.16 / Dynamic Range Meter 1.1.1
log date: 2018-12-25 22:45:24

--------------------------------------------------------------------------------
Analyzed: George Mraz, Emil Viklicky / Together Again
--------------------------------------------------------------------------------

DR         Peak         RMS     Duration Track
--------------------------------------------------------------------------------
DR8       -0.34 dB   -10.94 dB      2:46 01-Dear Lover
DR9       -0.34 dB   -11.52 dB      6:32 02-Poem
DR9       -0.34 dB   -11.87 dB      5:33 03-Theme from 5th Part of Sinfonietta
DR9       -0.34 dB   -12.41 dB      5:20 04-A Bird Flew By
DR10      -0.34 dB   -12.56 dB      5:33 05-U Dunaja, U Prespurka
DR7       -0.34 dB   -10.52 dB      3:47 06-Austerlitz
DR8       -0.34 dB   -11.29 dB      4:07 07-Moon, Sleeping in a Cradle
DR8       -0.34 dB   -11.01 dB      3:58 08-Thank You, Laca
DR8       -0.34 dB   -10.16 dB      3:20 09-Up On a Fir Tree
DR10      -0.34 dB   -12.72 dB      5:05 10-I Saw Grey Pidgeon
DR9       -0.34 dB   -12.11 dB      5:42 11-In Holomóc Town
--------------------------------------------------------------------------------

Number of tracks:  11
Official DR value: DR9

Samplerate:        96000 Hz
Channels:          2
Bits per sample:   24
Bitrate:           2562 kbps
Codec:             FLAC
================================================================================
Any questions - support@pro-jazz.com. Есть вопросы - support@pro-jazz.com
12:54
250
Нет комментариев. Ваш будет первым!