Поиск

2014 Ben Goldberg, Adam Levy, Smith Dobson - Worry Later (2019) {BAG Production} [24-88.2]

2014 Ben Goldberg, Adam Levy, Smith Dobson - Worry Later (2019) {BAG Production} [24-88.2]
Дата записи диска:
2 января - 3 января 2014
Место записи:
Cressman Studios, San Francisco, CA, USA
Дата издания диска:
20 мая 2014
Дата переиздания диска:
22 ноября 2019
Носитель:
WEB
Формат:
PCM
Тип рипа:
tracks
Контейнер:
FLAC (*.flac)
Количество каналов:
2.0
Разрядность/ЧД:
24/44,1
Битрейт аудио:
lossless
Время звучания:
00:50:55
Наличие сканов:
только обложка

01. Hornin In  06:01
02. Trinkle Tinkle  04:51
03. San Francisco Holiday (Worry Later)  04:32
04. Light Blue  04:14
05. Brilliant Corners  02:57
06. Little Rootie Tootie  05:12
07. Criss Cross  03:18
08. Shuffle Boil  06:14
09. Who Knows  04:04
10. Crepuscule With Nellie  04:50
11. Let's Cool One (Bonus Track)  04:42

Состав:
  • Ben Goldberg: clarinet
  • Adam Levy: guitar
  • Smith Dobson: drums
  • Recorded and mixed by Jeff Cressman
  • Mastered by Jon Cohrs at Spleenless Mastering, Brooklyn, NY
Лог проверки качества
foobar2000 1.6.2 / Dynamic Range Meter 1.1.1
log date: 2021-11-29 20:09:00

--------------------------------------------------------------------------------
Analyzed: Ben Goldberg / Worry Later
--------------------------------------------------------------------------------

DR         Peak         RMS     Duration Track
--------------------------------------------------------------------------------
DR9       -0.10 dB   -11.24 dB      6:02 01-Hornin In
DR9       -0.10 dB   -11.55 dB      4:51 02-Trinkle Tinkle
DR9       -0.10 dB   -11.56 dB      4:33 03-San Francisco Holiday (Worry Later)
DR10      -0.11 dB   -13.56 dB      4:14 04-Light Blue
DR9       -0.11 dB   -10.69 dB      2:57 05-Brilliant Corners
DR9       -0.07 dB   -11.46 dB      5:12 06-Little Rootie Tootie
DR10      -0.10 dB   -11.78 dB      3:19 07-Criss Cross
DR9       -0.09 dB   -11.85 dB      6:15 08-Shuffle Boil
DR9       -0.10 dB   -11.83 dB      4:04 09-Who Knows
DR10      -0.11 dB   -12.73 dB      4:51 10-Crepuscule With Nellie
DR11      -0.09 dB   -14.22 dB      4:42 11-Let's Cool One (Bonus Track)
--------------------------------------------------------------------------------

Number of tracks:  11
Official DR value: DR9

Samplerate:        88200 Hz
Channels:          2
Bits per sample:   24
Bitrate:           2330 kbps
Codec:             FLAC
================================================================================
Приватный:
Нет (DHT включён)
Размер:
917.34 Мб (961,898,442 байт) » файлов: 13
Участники:
10 раздают, 2 качают (12 участников всего)
Внешние участники:
--- [ Обновить ]
Скорость:
560.14 Кб/c 0/c
21:27
646
Нет комментариев. Ваш будет первым!