Поиск

2014 Aretha Franklin - The Real... Aretha Franklin (3CD) {Sony Music 88843097242}

2014 Aretha Franklin - The Real... Aretha Franklin (3CD) {Sony Music 88843097242}
Стили:
Дата издания диска:
2014
Издатель (лейбл):
Номер по каталогу:
88843097242
Носитель:
CD
Битрейт аудио:
lossless
Аудиокодек:
FLAC (*.flac)
Тип рипа:
tracks+.cue
Время звучания:
03:27:57
Наличие сканов:
  • да
Релизёр (источник):
Olivierito
Треклист:
CD 1 (52:44)

Треклист:
01. Soulville (2:26)
02. Nobody Knows The Way I Feel This Morning (5:11)
03. Evil Gal Blues (2:40)
04. Make Someone Happy (3:49)
05. Until The Real Thing Comes Along (3:06)
06. For All We Know (3:28)
07. I Wanna Be Around (2:26)
08. Mr. Ugly (3:23)
09. Say It Isn't So (3:08)
10. Unforgettable (3:40)
11. Cold, Cold Heart (4:35)
12. Until You Were Gone (3:06)
13. Gan't You Just See Me (2:02)
14. Ol' Man River (4:02)
15. Swanee (2:25)
16. Try A Little Tenderness (3:16)

Лог создания рипа


Exact Audio Copy V1.3 from 2. September 2016
EAC extraction logfile from 9. June 2017, 14:12
Aretha Franklin / The Real ... Aretha Franklin (CD1)
Used drive  : HL-DT-STDVD+-RW GU90N   Adapter: 1  ID: 0
Read mode               : Secure
Utilize accurate stream : Yes
Defeat audio cache      : Yes
Make use of C2 pointers : No
Read offset correction                      : 102
Overread into Lead-In and Lead-Out          : No
Fill up missing offset samples with silence : Yes
Delete leading and trailing silent blocks   : No
Null samples used in CRC calculations       : Yes
Used interface                              : Installed external ASPI interface
Gap handling                                : Appended to previous track
Used output format              : User Defined Encoder
Selected bitrate                : 768 kBit/s
Quality                         : High
Add ID3 tag                     : No
Command line compressor         : C:\Program Files (x86)\Exact Audio Copy\Flac\flac.exe
Additional command line options : -8 -V -T "ARTIST=%artist%" -T "TITLE=%title%" -T "ALBUM=%albumtitle%" -T "DATE=%year%" -T "TRACKNUMBER=%tracknr%" -T "GENRE=%genre%" -T "COMMENT=%comment%" -T "BAND=%albuminterpret%" -T "ALBUMARTIST=%albuminterpret%" -T "COMPOSER=%composer%" %haslyrics%--tag-from-file=LYRICS="%lyricsfile%"%haslyrics% -T "DISCNUMBER=%cdnumber%" -T "TOTALDISCS=%totalcds%" -T "TOTALTRACKS=%numtracks%" %hascover%--picture="%coverfile%"%hascover% %source% -o %dest%
TOC of the extracted CD
     Track |   Start  |  Length  | Start sector | End sector
    ---------------------------------------------------------
        1  |  0:00.00 |  2:26.34 |         0    |    10983
        2  |  2:26.34 |  5:10.73 |     10984    |    34306
        3  |  7:37.32 |  2:40.31 |     34307    |    46337
        4  | 10:17.63 |  3:49.18 |     46338    |    63530
        5  | 14:07.06 |  3:06.21 |     63531    |    77501
        6  | 17:13.27 |  3:27.73 |     77502    |    93099
        7  | 20:41.25 |  2:26.03 |     93100    |   104052
        8  | 23:07.28 |  3:22.48 |    104053    |   119250
        9  | 26:30.01 |  3:07.70 |    119251    |   133345
       10  | 29:37.71 |  3:40.14 |    133346    |   149859
       11  | 33:18.10 |  4:35.00 |    149860    |   170484
       12  | 37:53.10 |  3:06.04 |    170485    |   184438
       13  | 40:59.14 |  2:01.54 |    184439    |   193567
       14  | 43:00.68 |  4:01.60 |    193568    |   211702
       15  | 47:02.53 |  2:25.04 |    211703    |   222581
       16  | 49:27.57 |  3:16.03 |    222582    |   237284
Track  1
     Filename C:\Program Files (x86)\Exact Audio Copy\Flac\01. Soulville.wav
     Pre-gap length  0:00:02.00
     Peak level 100.0 %
     Extraction speed 2.3 X
     Track quality 100.0 %
     Test CRC C38DCB9B
     Copy CRC C38DCB9B
     Accurately ripped (confidence 8)  [DBAC4526]  (AR v2)
     Copy OK
Track  2
     Filename C:\Program Files (x86)\Exact Audio Copy\Flac\02. Nobody Knows The Way I Feel This Morning.wav
     Pre-gap length  0:00:00.58
     Peak level 100.0 %
     Extraction speed 2.6 X
     Track quality 100.0 %
     Test CRC 4CBFBD90
     Copy CRC 4CBFBD90
     Accurately ripped (confidence 8)  [FECE2DF4]  (AR v2)
     Copy OK
Track  3
     Filename C:\Program Files (x86)\Exact Audio Copy\Flac\03. Evil Gal Blues.wav
     Pre-gap length  0:00:00.58
     Peak level 100.0 %
     Extraction speed 2.9 X
     Track quality 100.0 %
     Test CRC F9CBE21A
     Copy CRC F9CBE21A
     Accurately ripped (confidence 8)  [31588C37]  (AR v2)
     Copy OK
Track  4
     Filename C:\Program Files (x86)\Exact Audio Copy\Flac\04. Make Someone Happy.wav
     Pre-gap length  0:00:00.58
     Peak level 100.0 %
     Extraction speed 3.2 X
     Track quality 100.0 %
     Test CRC 72CEFC84
     Copy CRC 72CEFC84
     Accurately ripped (confidence 8)  [686BCACE]  (AR v2)
     Copy OK
Track  5
     Filename C:\Program Files (x86)\Exact Audio Copy\Flac\05. Until The Real Thing Comes Along.wav
     Pre-gap length  0:00:00.58
     Peak level 94.0 %
     Extraction speed 2.6 X
     Track quality 99.9 %
     Test CRC 467B600E
     Copy CRC 467B600E
     Accurately ripped (confidence 8)  [FD4BD85A]  (AR v2)
     Copy OK
Track  6
     Filename C:\Program Files (x86)\Exact Audio Copy\Flac\06. For All We Know.wav
     Pre-gap length  0:00:00.58
     Peak level 91.2 %
     Extraction speed 3.6 X
     Track quality 100.0 %
     Test CRC 7C4D2670
     Copy CRC 7C4D2670
     Accurately ripped (confidence 8)  [9E3B4516]  (AR v2)
     Copy OK
Track  7
     Filename C:\Program Files (x86)\Exact Audio Copy\Flac\07. I Wanna Be Around.wav
     Pre-gap length  0:00:00.58
     Peak level 100.0 %
     Extraction speed 3.4 X
     Track quality 100.0 %
     Test CRC AB8BFCF5
     Copy CRC AB8BFCF5
     Accurately ripped (confidence 8)  [262372BF]  (AR v2)
     Copy OK
Track  8
     Filename C:\Program Files (x86)\Exact Audio Copy\Flac\08. Mr. Ugly.wav
     Pre-gap length  0:00:00.58
     Peak level 90.5 %
     Extraction speed 3.6 X
     Track quality 100.0 %
     Test CRC B5D1E31C
     Copy CRC B5D1E31C
     Accurately ripped (confidence 8)  [74773C23]  (AR v2)
     Copy OK
Track  9
     Filename C:\Program Files (x86)\Exact Audio Copy\Flac\09. Say It Isn't So.wav
     Pre-gap length  0:00:00.58
     Peak level 98.8 %
     Extraction speed 3.8 X
     Track quality 100.0 %
     Test CRC DF353BE1
     Copy CRC DF353BE1
     Accurately ripped (confidence 8)  [E2D227C2]  (AR v2)
     Copy OK
Track 10
     Filename C:\Program Files (x86)\Exact Audio Copy\Flac\10. Unforgettable.wav
     Pre-gap length  0:00:00.58
     Peak level 100.0 %
     Extraction speed 4.1 X
     Track quality 100.0 %
     Test CRC BB11E8E2
     Copy CRC BB11E8E2
     Accurately ripped (confidence 8)  [DD0AD169]  (AR v2)
     Copy OK
Track 11
     Filename C:\Program Files (x86)\Exact Audio Copy\Flac\11. Cold, Cold Heart.wav
     Pre-gap length  0:00:00.58
     Peak level 100.0 %
     Extraction speed 4.4 X
     Track quality 100.0 %
     Test CRC 200AD097
     Copy CRC 200AD097
     Accurately ripped (confidence 8)  [0087147F]  (AR v2)
     Copy OK
Track 12
     Filename C:\Program Files (x86)\Exact Audio Copy\Flac\12. Until You Were Gone.wav
     Pre-gap length  0:00:00.58
     Peak level 100.0 %
     Extraction speed 4.4 X
     Track quality 100.0 %
     Test CRC A75D3FE2
     Copy CRC A75D3FE2
     Accurately ripped (confidence 8)  [7B4CC979]  (AR v2)
     Copy OK
Track 13
     Filename C:\Program Files (x86)\Exact Audio Copy\Flac\13. Gan't You Just See Me.wav
     Pre-gap length  0:00:00.58
     Peak level 100.0 %
     Extraction speed 3.9 X
     Track quality 100.0 %
     Test CRC E77E7D8E
     Copy CRC E77E7D8E
     Accurately ripped (confidence 8)  [F4C05535]  (AR v2)
     Copy OK
Track 14
     Filename C:\Program Files (x86)\Exact Audio Copy\Flac\14. Ol' Man River.wav
     Pre-gap length  0:00:00.58
     Peak level 100.0 %
     Extraction speed 4.4 X
     Track quality 100.0 %
     Test CRC 49C61A33
     Copy CRC 49C61A33
     Accurately ripped (confidence 8)  [D574EE2C]  (AR v2)
     Copy OK
Track 15
     Filename C:\Program Files (x86)\Exact Audio Copy\Flac\15. Swanee.wav
     Pre-gap length  0:00:00.58
     Peak level 100.0 %
     Extraction speed 3.1 X
     Track quality 99.9 %
     Test CRC ABA1A23B
     Copy CRC ABA1A23B
     Accurately ripped (confidence 8)  [23ABA077]  (AR v2)
     Copy OK
Track 16
     Filename C:\Program Files (x86)\Exact Audio Copy\Flac\16. Try A Little Tenderness.wav
     Pre-gap length  0:00:00.58
     Peak level 100.0 %
     Extraction speed 4.5 X
     Track quality 100.0 %
     Test CRC F46607D4
     Copy CRC F46607D4
     Accurately ripped (confidence 8)  [C8FF2D3B]  (AR v2)
     Copy OK
All tracks accurately ripped
No errors occurred
End of status report
---- CUETools DB Plugin V2.1.6
[CTDB TOCID: 1k7ieRNi.Der4xur1aJAxDHjgQw-] found
Submit result: 1k7ieRNi.Der4xur1aJAxDHjgQw- has been confirmed
Track | CTDB Status
  1   | (24/24) Accurately ripped
  2   | (24/24) Accurately ripped
  3   | (24/24) Accurately ripped
  4   | (24/24) Accurately ripped
  5   | (24/24) Accurately ripped
  6   | (23/24) Accurately ripped
  7   | (24/24) Accurately ripped
  8   | (24/24) Accurately ripped
  9   | (24/24) Accurately ripped
 10   | (24/24) Accurately ripped
 11   | (24/24) Accurately ripped
 12   | (23/24) Accurately ripped
 13   | (23/24) Accurately ripped
 14   | (24/24) Accurately ripped
 15   | (24/24) Accurately ripped
 16   | (24/24) Accurately ripped
==== Log checksum ACA79D411AEF0AA56DFB4D3D824FD678465370A88D7E1CCCDF7530FF84D73F9E ====
Содержание индексной карты (.CUE)


REM GENRE Soul
REM DATE 2014
REM DISCID F10C5B10
REM COMMENT "ExactAudioCopy v1.3"
PERFORMER "Aretha Franklin"
TITLE "The Real... Aretha Franklin (CD1)"
REM COMPOSER ""
FILE "01. Soulville.wav" WAVE
  TRACK 01 AUDIO
    TITLE "Soulville"
    PERFORMER "Aretha Franklin"
    REM COMPOSER ""
    INDEX 01 00:00:00
  TRACK 02 AUDIO
    TITLE "Nobody Knows The Way I Feel This Morning"
    PERFORMER "Aretha Franklin"
    REM COMPOSER ""
    INDEX 00 02:25:51
FILE "02. Nobody Knows The Way I Feel This Morning.wav" WAVE
    INDEX 01 00:00:00
  TRACK 03 AUDIO
    TITLE "Evil Gal Blues"
    PERFORMER "Aretha Franklin"
    REM COMPOSER ""
    INDEX 00 05:10:15
FILE "03. Evil Gal Blues.wav" WAVE
    INDEX 01 00:00:00
  TRACK 04 AUDIO
    TITLE "Make Someone Happy"
    PERFORMER "Aretha Franklin"
    REM COMPOSER ""
    INDEX 00 02:39:48
FILE "04. Make Someone Happy.wav" WAVE
    INDEX 01 00:00:00
  TRACK 05 AUDIO
    TITLE "Until The Real Thing Comes Along"
    PERFORMER "Aretha Franklin"
    REM COMPOSER ""
    INDEX 00 03:48:35
FILE "05. Until The Real Thing Comes Along.wav" WAVE
    INDEX 01 00:00:00
  TRACK 06 AUDIO
    TITLE "For All We Know"
    PERFORMER "Aretha Franklin"
    REM COMPOSER ""
    INDEX 00 03:05:38
FILE "06. For All We Know.wav" WAVE
    INDEX 01 00:00:00
  TRACK 07 AUDIO
    TITLE "I Wanna Be Around"
    PERFORMER "Aretha Franklin"
    REM COMPOSER ""
    INDEX 00 03:27:15
FILE "07. I Wanna Be Around.wav" WAVE
    INDEX 01 00:00:00
  TRACK 08 AUDIO
    TITLE "Mr. Ugly"
    PERFORMER "Aretha Franklin"
    REM COMPOSER ""
    INDEX 00 02:25:20
FILE "08. Mr. Ugly.wav" WAVE
    INDEX 01 00:00:00
  TRACK 09 AUDIO
    TITLE "Say It Isn't So"
    PERFORMER "Aretha Franklin"
    REM COMPOSER ""
    INDEX 00 03:21:65
FILE "09. Say It Isn't So.wav" WAVE
    INDEX 01 00:00:00
  TRACK 10 AUDIO
    TITLE "Unforgettable"
    PERFORMER "Aretha Franklin"
    REM COMPOSER ""
    INDEX 00 03:07:12
FILE "10. Unforgettable.wav" WAVE
    INDEX 01 00:00:00
  TRACK 11 AUDIO
    TITLE "Cold, Cold Heart"
    PERFORMER "Aretha Franklin"
    REM COMPOSER ""
    INDEX 00 03:39:31
FILE "11. Cold, Cold Heart.wav" WAVE
    INDEX 01 00:00:00
  TRACK 12 AUDIO
    TITLE "Until You Were Gone"
    PERFORMER "Aretha Franklin"
    REM COMPOSER ""
    INDEX 00 04:34:17
FILE "12. Until You Were Gone.wav" WAVE
    INDEX 01 00:00:00
  TRACK 13 AUDIO
    TITLE "Gan't You Just See Me"
    PERFORMER "Aretha Franklin"
    REM COMPOSER ""
    INDEX 00 03:05:21
FILE "13. Gan't You Just See Me.wav" WAVE
    INDEX 01 00:00:00
  TRACK 14 AUDIO
    TITLE "Ol' Man River"
    PERFORMER "Aretha Franklin"
    REM COMPOSER ""
    INDEX 00 02:00:71
FILE "14. Ol' Man River.wav" WAVE
    INDEX 01 00:00:00
  TRACK 15 AUDIO
    TITLE "Swanee"
    PERFORMER "Aretha Franklin"
    REM COMPOSER ""
    INDEX 00 04:01:02
FILE "15. Swanee.wav" WAVE
    INDEX 01 00:00:00
  TRACK 16 AUDIO
    TITLE "Try A Little Tenderness"
    PERFORMER "Aretha Franklin"
    REM COMPOSER ""
    INDEX 00 02:24:21
FILE "16. Try A Little Tenderness.wav" WAVE
    INDEX 01 00:00:00
CD 2 (77:34)

Треклист:
01. Can't Turn You Loose (3:56)
02. Hold On I'm Comin' (5:15)
03. What A Fool Believes (5:12)
04. Love Me Forever (3:31)
05. Take Me With You (4:04)
06. Love All The Hurt Away (4:11)
07. Jump To It (6:37)
08. Love Me Right (4:07)
09. It's Your Right (4:15)
10. Every Girl (Wants My Guy) (6:27)
11. Jimmy Lee (5:41)
12. Ain't Nobody Ever Loved You (4:47)
13. Another Night (4:28)
14. Who's Zoomin' Who? (4:42)
15. Jumpin' Jack Flash (5:03)
16. You Can't Always Get What You Want (5:18)

Лог создания рипа


Exact Audio Copy V1.3 from 2. September 2016
EAC extraction logfile from 11. June 2017, 12:31
Aretha Franklin / The Real... Aretha Franklin (CD2)
Used drive  : TSSTcorpCDDVDW SE-208AB   Adapter: 2  ID: 0
Read mode               : Secure
Utilize accurate stream : Yes
Defeat audio cache      : Yes
Make use of C2 pointers : No
Read offset correction                      : 6
Overread into Lead-In and Lead-Out          : No
Fill up missing offset samples with silence : Yes
Delete leading and trailing silent blocks   : No
Null samples used in CRC calculations       : Yes
Used interface                              : Installed external ASPI interface
Gap handling                                : Appended to previous track
Used output format              : User Defined Encoder
Selected bitrate                : 768 kBit/s
Quality                         : High
Add ID3 tag                     : No
Command line compressor         : C:\Program Files (x86)\Exact Audio Copy\Flac\flac.exe
Additional command line options : -8 -V -T "ARTIST=%artist%" -T "TITLE=%title%" -T "ALBUM=%albumtitle%" -T "DATE=%year%" -T "TRACKNUMBER=%tracknr%" -T "GENRE=%genre%" -T "COMMENT=%comment%" -T "BAND=%albuminterpret%" -T "ALBUMARTIST=%albuminterpret%" -T "COMPOSER=%composer%" %haslyrics%--tag-from-file=LYRICS="%lyricsfile%"%haslyrics% -T "DISCNUMBER=%cdnumber%" -T "TOTALDISCS=%totalcds%" -T "TOTALTRACKS=%numtracks%" %hascover%--picture="%coverfile%"%hascover% %source% -o %dest%
TOC of the extracted CD
     Track |   Start  |  Length  | Start sector | End sector
    ---------------------------------------------------------
        1  |  0:00.00 |  3:56.20 |         0    |    17719
        2  |  3:56.20 |  5:15.25 |     17720    |    41369
        3  |  9:11.45 |  5:12.20 |     41370    |    64789
        4  | 14:23.65 |  3:31.04 |     64790    |    80618
        5  | 17:54.69 |  4:03.63 |     80619    |    98906
        6  | 21:58.57 |  4:11.01 |     98907    |   117732
        7  | 26:09.58 |  6:37.37 |    117733    |   147544
        8  | 32:47.20 |  4:06.72 |    147545    |   166066
        9  | 36:54.17 |  4:14.59 |    166067    |   185175
       10  | 41:09.01 |  6:26.53 |    185176    |   214178
       11  | 47:35.54 |  5:41.22 |    214179    |   239775
       12  | 53:17.01 |  4:46.40 |    239776    |   261265
       13  | 58:03.41 |  4:27.61 |    261266    |   281351
       14  | 62:31.27 |  4:42.15 |    281352    |   302516
       15  | 67:13.42 |  5:02.63 |    302517    |   325229
       16  | 72:16.30 |  5:17.73 |    325230    |   349077
Track  1
     Filename C:\Program Files (x86)\Exact Audio Copy\Flac\01. Can't Turn You Loose.wav
     Pre-gap length  0:00:02.00
     Peak level 98.2 %
     Extraction speed 2.9 X
     Track quality 100.0 %
     Test CRC 854AEC6C
     Copy CRC 854AEC6C
     Accurately ripped (confidence 8)  [4E12BDDC]  (AR v2)
     Copy OK
Track  2
     Filename C:\Program Files (x86)\Exact Audio Copy\Flac\02. Hold On I'm Comin'.wav
     Pre-gap length  0:00:00.65
     Peak level 94.4 %
     Extraction speed 3.3 X
     Track quality 100.0 %
     Test CRC 645BBBCB
     Copy CRC 645BBBCB
     Accurately ripped (confidence 8)  [459D91E1]  (AR v2)
     Copy OK
Track  3
     Filename C:\Program Files (x86)\Exact Audio Copy\Flac\03. What A Fool Believes.wav
     Pre-gap length  0:00:00.65
     Peak level 94.4 %
     Extraction speed 3.6 X
     Track quality 100.0 %
     Test CRC 21D54282
     Copy CRC 21D54282
     Accurately ripped (confidence 8)  [0BB1DC52]  (AR v2)
     Copy OK
Track  4
     Filename C:\Program Files (x86)\Exact Audio Copy\Flac\04. Love Me Forever.wav
     Pre-gap length  0:00:00.65
     Peak level 92.2 %
     Extraction speed 3.6 X
     Track quality 100.0 %
     Test CRC B7E7974B
     Copy CRC B7E7974B
     Accurately ripped (confidence 8)  [8D666B78]  (AR v2)
     Copy OK
Track  5
     Filename C:\Program Files (x86)\Exact Audio Copy\Flac\05. Take Me With You.wav
     Pre-gap length  0:00:00.65
     Peak level 93.3 %
     Extraction speed 3.9 X
     Track quality 100.0 %
     Test CRC 2190B4F8
     Copy CRC 2190B4F8
     Accurately ripped (confidence 8)  [21C2B6FD]  (AR v2)
     Copy OK
Track  6
     Filename C:\Program Files (x86)\Exact Audio Copy\Flac\06. Love All The Hurt Away.wav
     Pre-gap length  0:00:00.65
     Peak level 94.4 %
     Extraction speed 3.3 X
     Track quality 99.9 %
     Test CRC 817DE208
     Copy CRC 817DE208
     Accurately ripped (confidence 8)  [E0E5155C]  (AR v2)
     Copy OK
Track  7
     Filename C:\Program Files (x86)\Exact Audio Copy\Flac\07. Jump To It.wav
     Pre-gap length  0:00:00.65
     Peak level 94.4 %
     Extraction speed 4.5 X
     Track quality 100.0 %
     Test CRC 54529186
     Copy CRC 54529186
     Accurately ripped (confidence 8)  [C254DAEC]  (AR v2)
     Copy OK
Track  8
     Filename C:\Program Files (x86)\Exact Audio Copy\Flac\08. Love Me Right.wav
     Pre-gap length  0:00:00.65
     Peak level 94.4 %
     Extraction speed 3.7 X
     Track quality 99.9 %
     Test CRC C1AD67E9
     Copy CRC C1AD67E9
     Accurately ripped (confidence 8)  [E43AD1FE]  (AR v2)
     Copy OK
Track  9
     Filename C:\Program Files (x86)\Exact Audio Copy\Flac\09. It's Your Right.wav
     Pre-gap length  0:00:00.65
     Peak level 94.4 %
     Extraction speed 4.7 X
     Track quality 100.0 %
     Test CRC C3177B3F
     Copy CRC C3177B3F
     Accurately ripped (confidence 8)  [75112BEC]  (AR v2)
     Copy OK
Track 10
     Filename C:\Program Files (x86)\Exact Audio Copy\Flac\10. Every Girl (Wants My Guy).wav
     Pre-gap length  0:00:00.65
     Peak level 94.4 %
     Extraction speed 5.1 X
     Track quality 100.0 %
     Test CRC 1CC8CD77
     Copy CRC 1CC8CD77
     Accurately ripped (confidence 8)  [7EAC595F]  (AR v2)
     Copy OK
Track 11
     Filename C:\Program Files (x86)\Exact Audio Copy\Flac\11. Jimmy Lee.wav
     Pre-gap length  0:00:00.65
     Peak level 94.4 %
     Extraction speed 4.5 X
     Track quality 99.9 %
     Test CRC 22479B7F
     Copy CRC 22479B7F
     Accurately ripped (confidence 8)  [A5F3A0E1]  (AR v2)
     Copy OK
Track 12
     Filename C:\Program Files (x86)\Exact Audio Copy\Flac\12. Ain't Nobody Ever Loved You.wav
     Pre-gap length  0:00:00.65
     Peak level 94.4 %
     Extraction speed 5.2 X
     Track quality 100.0 %
     Test CRC A4C25576
     Copy CRC A4C25576
     Accurately ripped (confidence 8)  [4B9B75E6]  (AR v2)
     Copy OK
Track 13
     Filename C:\Program Files (x86)\Exact Audio Copy\Flac\13. Another Night.wav
     Pre-gap length  0:00:00.65
     Peak level 94.4 %
     Extraction speed 5.4 X
     Track quality 100.0 %
     Test CRC B7FF3D1A
     Copy CRC B7FF3D1A
     Accurately ripped (confidence 8)  [19464E5E]  (AR v2)
     Copy OK
Track 14
     Filename C:\Program Files (x86)\Exact Audio Copy\Flac\14. Who's Zoomin' Who.wav
     Pre-gap length  0:00:00.64
     Peak level 94.4 %
     Extraction speed 4.6 X
     Track quality 99.9 %
     Test CRC FA47BF08
     Copy CRC FA47BF08
     Accurately ripped (confidence 8)  [2D6D434F]  (AR v2)
     Copy OK
Track 15
     Filename C:\Program Files (x86)\Exact Audio Copy\Flac\15. Jumpin' Jack Flash.wav
     Pre-gap length  0:00:00.64
     Peak level 96.6 %
     Extraction speed 5.8 X
     Track quality 100.0 %
     Test CRC 3C92812A
     Copy CRC 3C92812A
     Accurately ripped (confidence 8)  [3166A925]  (AR v2)
     Copy OK
Track 16
     Filename C:\Program Files (x86)\Exact Audio Copy\Flac\16. You Can't Always Get What You Want.wav
     Pre-gap length  0:00:00.65
     Peak level 94.4 %
     Extraction speed 6.0 X
     Track quality 100.0 %
     Test CRC 7FB3E2B5
     Copy CRC 7FB3E2B5
     Accurately ripped (confidence 8)  [E1A7CB80]  (AR v2)
     Copy OK
All tracks accurately ripped
No errors occurred
End of status report
---- CUETools DB Plugin V2.1.6
[CTDB TOCID: uj2qqfUpHM.J_HD1VOn67lHaZjQ-] found
Submit result: uj2qqfUpHM.J_HD1VOn67lHaZjQ- has been confirmed
Track | CTDB Status
  1   | (22/22) Accurately ripped
  2   | (22/22) Accurately ripped
  3   | (22/22) Accurately ripped
  4   | (22/22) Accurately ripped
  5   | (22/22) Accurately ripped
  6   | (22/22) Accurately ripped
  7   | (21/22) Accurately ripped
  8   | (22/22) Accurately ripped
  9   | (22/22) Accurately ripped
 10   | (22/22) Accurately ripped
 11   | (21/22) Accurately ripped
 12   | (22/22) Accurately ripped
 13   | (22/22) Accurately ripped
 14   | (21/22) Accurately ripped
 15   | (22/22) Accurately ripped
 16   | (22/22) Accurately ripped
==== Log checksum 2FC04B755206E7754EA48F9BC9F2C480F1D6E5108ED96A2F7A78F8AECCC385F6 ====
Содержание индексной карты (.CUE)
REM GENRE Soul
REM DATE 2014
REM DISCID F3122E10
REM COMMENT "ExactAudioCopy v1.3"
PERFORMER "Aretha Franklin"
TITLE "The Real... Aretha Franklin (CD2)"
REM COMPOSER ""
FILE "01. Can't Turn You Loose.wav" WAVE
  TRACK 01 AUDIO
    TITLE "Can't Turn You Loose"
    PERFORMER "Aretha Franklin"
    REM COMPOSER ""
    INDEX 01 00:00:00
  TRACK 02 AUDIO
    TITLE "Hold On I'm Comin'"
    PERFORMER "Aretha Franklin"
    REM COMPOSER ""
    INDEX 00 03:55:30
FILE "02. Hold On I'm Comin'.wav" WAVE
    INDEX 01 00:00:00
  TRACK 03 AUDIO
    TITLE "What A Fool Believes"
    PERFORMER "Aretha Franklin"
    REM COMPOSER ""
    INDEX 00 05:14:35
FILE "03. What A Fool Believes.wav" WAVE
    INDEX 01 00:00:00
  TRACK 04 AUDIO
    TITLE "Love Me Forever"
    PERFORMER "Aretha Franklin"
    REM COMPOSER ""
    INDEX 00 05:11:30
FILE "04. Love Me Forever.wav" WAVE
    INDEX 01 00:00:00
  TRACK 05 AUDIO
    TITLE "Take Me With You"
    PERFORMER "Aretha Franklin"
    REM COMPOSER ""
    INDEX 00 03:30:14
FILE "05. Take Me With You.wav" WAVE
    INDEX 01 00:00:00
  TRACK 06 AUDIO
    TITLE "Love All The Hurt Away"
    PERFORMER "Aretha Franklin"
    REM COMPOSER ""
    INDEX 00 04:02:73
FILE "06. Love All The Hurt Away.wav" WAVE
    INDEX 01 00:00:00
  TRACK 07 AUDIO
    TITLE "Jump To It"
    PERFORMER "Aretha Franklin"
    REM COMPOSER ""
    INDEX 00 04:10:11
FILE "07. Jump To It.wav" WAVE
    INDEX 01 00:00:00
  TRACK 08 AUDIO
    TITLE "Love Me Right"
    PERFORMER "Aretha Franklin"
    REM COMPOSER ""
    INDEX 00 06:36:47
FILE "08. Love Me Right.wav" WAVE
    INDEX 01 00:00:00
  TRACK 09 AUDIO
    TITLE "It's Your Right"
    PERFORMER "Aretha Franklin"
    REM COMPOSER ""
    INDEX 00 04:06:07
FILE "09. It's Your Right.wav" WAVE
    INDEX 01 00:00:00
  TRACK 10 AUDIO
    TITLE "Every Girl (Wants My Guy)"
    PERFORMER "Aretha Franklin"
    REM COMPOSER ""
    INDEX 00 04:13:69
FILE "10. Every Girl (Wants My Guy).wav" WAVE
    INDEX 01 00:00:00
  TRACK 11 AUDIO
    TITLE "Jimmy Lee"
    PERFORMER "Aretha Franklin"
    REM COMPOSER ""
    INDEX 00 06:25:63
FILE "11. Jimmy Lee.wav" WAVE
    INDEX 01 00:00:00
  TRACK 12 AUDIO
    TITLE "Ain't Nobody Ever Loved You"
    PERFORMER "Aretha Franklin"
    REM COMPOSER ""
    INDEX 00 05:40:32
FILE "12. Ain't Nobody Ever Loved You.wav" WAVE
    INDEX 01 00:00:00
  TRACK 13 AUDIO
    TITLE "Another Night"
    PERFORMER "Aretha Franklin"
    REM COMPOSER ""
    INDEX 00 04:45:50
FILE "13. Another Night.wav" WAVE
    INDEX 01 00:00:00
  TRACK 14 AUDIO
    TITLE "Who's Zoomin' Who?"
    PERFORMER "Aretha Franklin"
    REM COMPOSER ""
    INDEX 00 04:26:72
FILE "14. Who's Zoomin' Who.wav" WAVE
    INDEX 01 00:00:00
  TRACK 15 AUDIO
    TITLE "Jumpin' Jack Flash"
    PERFORMER "Aretha Franklin"
    REM COMPOSER ""
    INDEX 00 04:41:26
FILE "15. Jumpin' Jack Flash.wav" WAVE
    INDEX 01 00:00:00
  TRACK 16 AUDIO
    TITLE "You Can't Always Get What You Want"
    PERFORMER "Aretha Franklin"
    REM COMPOSER ""
    INDEX 00 05:01:73
FILE "16. You Can't Always Get What You Want.wav" WAVE
    INDEX 01 00:00:00
CD 3 (77:39)

Треклист:
01. A Deeper Love (4:43)
02. Everyday People (3:49)
03. Doctors Orders (4:34)
04. Ever Changing Times (4:54)
05. Mary Goes Round (3:05)
06. Willing To Forgive (4:06)
07. A Rose Is Still A Rose (4:26)
08. Here We Go Again (3:29)
09. I'll Dip (4:04)
10. The Woman (7:42)
11. Someone Else's Eyes (4:56)
12. The Only Thing Missin' (3:08)
13. Holdin' On (4:35)
14. So Damn Happy (4:29)
15. Higher Ground (3:55)
16. Oh Happy Day (6:09)
17. Packing Up, Getting Ready To Go (5:34)

Лог создания рипа
Exact Audio Copy V1.3 from 2. September 2016
EAC extraction logfile from 11. June 2017, 14:04
Aretha Franklin / The Real... Aretha Franklin (CD3)
Used drive  : TSSTcorpCDDVDW SE-208AB   Adapter: 2  ID: 0
Read mode               : Secure
Utilize accurate stream : Yes
Defeat audio cache      : Yes
Make use of C2 pointers : No
Read offset correction                      : 6
Overread into Lead-In and Lead-Out          : No
Fill up missing offset samples with silence : Yes
Delete leading and trailing silent blocks   : No
Null samples used in CRC calculations       : Yes
Used interface                              : Installed external ASPI interface
Gap handling                                : Appended to previous track
Used output format              : User Defined Encoder
Selected bitrate                : 768 kBit/s
Quality                         : High
Add ID3 tag                     : No
Command line compressor         : C:\Program Files (x86)\Exact Audio Copy\Flac\flac.exe
Additional command line options : -8 -V -T "ARTIST=%artist%" -T "TITLE=%title%" -T "ALBUM=%albumtitle%" -T "DATE=%year%" -T "TRACKNUMBER=%tracknr%" -T "GENRE=%genre%" -T "COMMENT=%comment%" -T "BAND=%albuminterpret%" -T "ALBUMARTIST=%albuminterpret%" -T "COMPOSER=%composer%" %haslyrics%--tag-from-file=LYRICS="%lyricsfile%"%haslyrics% -T "DISCNUMBER=%cdnumber%" -T "TOTALDISCS=%totalcds%" -T "TOTALTRACKS=%numtracks%" %hascover%--picture="%coverfile%"%hascover% %source% -o %dest%
TOC of the extracted CD
     Track |   Start  |  Length  | Start sector | End sector
    ---------------------------------------------------------
        1  |  0:00.00 |  4:42.47 |         0    |    21196
        2  |  4:42.47 |  3:49.18 |     21197    |    38389
        3  |  8:31.65 |  4:34.04 |     38390    |    58943
        4  | 13:05.69 |  4:53.73 |     58944    |    80991
        5  | 17:59.67 |  3:05.05 |     80992    |    94871
        6  | 21:04.72 |  4:06.30 |     94872    |   113351
        7  | 25:11.27 |  4:26.34 |    113352    |   133335
        8  | 29:37.61 |  3:29.20 |    133336    |   149030
        9  | 33:07.06 |  4:03.56 |    149031    |   167311
       10  | 37:10.62 |  7:41.73 |    167312    |   201959
       11  | 44:52.60 |  4:55.70 |    201960    |   224154
       12  | 49:48.55 |  3:07.60 |    224155    |   238239
       13  | 52:56.40 |  4:34.55 |    238240    |   258844
       14  | 57:31.20 |  4:29.16 |    258845    |   279035
       15  | 62:00.36 |  3:55.30 |    279036    |   296690
       16  | 65:55.66 |  6:09.06 |    296691    |   324371
       17  | 72:04.72 |  5:34.22 |    324372    |   349443
Track  1
     Filename C:\Program Files (x86)\Exact Audio Copy\Flac\01. A Deeper Love.wav
     Pre-gap length  0:00:02.00
     Peak level 100.0 %
     Extraction speed 1.2 X
     Track quality 100.0 %
     Test CRC A124B7E9
     Copy CRC A124B7E9
     Accurately ripped (confidence 8)  [3FC7757B]  (AR v2)
     Copy OK
Track  2
     Filename C:\Program Files (x86)\Exact Audio Copy\Flac\02. Everyday People.wav
     Pre-gap length  0:00:00.58
     Peak level 100.0 %
     Extraction speed 1.2 X
     Track quality 100.0 %
     Test CRC F3354BE6
     Copy CRC F3354BE6
     Accurately ripped (confidence 8)  [7FFA510B]  (AR v2)
     Copy OK
Track  3
     Filename C:\Program Files (x86)\Exact Audio Copy\Flac\03. Doctors Orders.wav
     Pre-gap length  0:00:00.58
     Peak level 97.7 %
     Extraction speed 1.4 X
     Track quality 100.0 %
     Test CRC 505E162B
     Copy CRC 505E162B
     Accurately ripped (confidence 8)  [AC3C6645]  (AR v2)
     Copy OK
Track  4
     Filename C:\Program Files (x86)\Exact Audio Copy\Flac\04. Ever Changing Times.wav
     Pre-gap length  0:00:00.58
     Peak level 100.0 %
     Extraction speed 1.6 X
     Track quality 100.0 %
     Test CRC CE2AD3EA
     Copy CRC CE2AD3EA
     Accurately ripped (confidence 8)  [F297297D]  (AR v2)
     Copy OK
Track  5
     Filename C:\Program Files (x86)\Exact Audio Copy\Flac\05. Mary Goes Round.wav
     Pre-gap length  0:00:00.58
     Peak level 97.7 %
     Extraction speed 1.5 X
     Track quality 100.0 %
     Test CRC F727DA02
     Copy CRC F727DA02
     Accurately ripped (confidence 8)  [7B27701E]  (AR v2)
     Copy OK
Track  6
     Filename C:\Program Files (x86)\Exact Audio Copy\Flac\06. Willing To Forgive.wav
     Pre-gap length  0:00:00.58
     Peak level 100.0 %
     Extraction speed 1.7 X
     Track quality 100.0 %
     Test CRC 12C4362B
     Copy CRC 12C4362B
     Accurately ripped (confidence 8)  [E3060268]  (AR v2)
     Copy OK
Track  7
     Filename C:\Program Files (x86)\Exact Audio Copy\Flac\07. A Rose Is Still A Rose.wav
     Pre-gap length  0:00:00.58
     Peak level 100.0 %
     Extraction speed 1.8 X
     Track quality 100.0 %
     Test CRC 0829945C
     Copy CRC 0829945C
     Accurately ripped (confidence 8)  [CD205FCB]  (AR v2)
     Copy OK
Track  8
     Filename C:\Program Files (x86)\Exact Audio Copy\Flac\08. Here We Go Again.wav
     Pre-gap length  0:00:00.58
     Peak level 100.0 %
     Extraction speed 1.8 X
     Track quality 100.0 %
     Test CRC 9D4733D5
     Copy CRC 9D4733D5
     Accurately ripped (confidence 8)  [C722E340]  (AR v2)
     Copy OK
Track  9
     Filename C:\Program Files (x86)\Exact Audio Copy\Flac\09. I'll Dip.wav
     Pre-gap length  0:00:00.58
     Peak level 97.7 %
     Extraction speed 1.9 X
     Track quality 100.0 %
     Test CRC DC043E60
     Copy CRC DC043E60
     Accurately ripped (confidence 8)  [DD3A4BE3]  (AR v2)
     Copy OK
Track 10
     Filename C:\Program Files (x86)\Exact Audio Copy\Flac\10. The Woman.wav
     Pre-gap length  0:00:00.58
     Peak level 100.0 %
     Extraction speed 2.2 X
     Track quality 100.0 %
     Test CRC FE7A11EE
     Copy CRC FE7A11EE
     Accurately ripped (confidence 8)  [4C4BF6E3]  (AR v2)
     Copy OK
Track 11
     Filename C:\Program Files (x86)\Exact Audio Copy\Flac\11. Someone Else's Eyes.wav
     Pre-gap length  0:00:00.58
     Peak level 100.0 %
     Extraction speed 2.2 X
     Track quality 100.0 %
     Test CRC 93A86A5F
     Copy CRC 93A86A5F
     Accurately ripped (confidence 8)  [C70D8E5E]  (AR v2)
     Copy OK
Track 12
     Filename C:\Program Files (x86)\Exact Audio Copy\Flac\12. The Only Thing Missin'.wav
     Pre-gap length  0:00:00.58
     Peak level 88.0 %
     Extraction speed 2.1 X
     Track quality 100.0 %
     Test CRC 33EB2E4A
     Copy CRC 33EB2E4A
     Accurately ripped (confidence 8)  [A32DAD2A]  (AR v2)
     Copy OK
Track 13
     Filename C:\Program Files (x86)\Exact Audio Copy\Flac\13. Holdin' On.wav
     Pre-gap length  0:00:00.58
     Peak level 100.0 %
     Extraction speed 2.3 X
     Track quality 100.0 %
     Test CRC F577ED60
     Copy CRC F577ED60
     Accurately ripped (confidence 8)  [E45FDC78]  (AR v2)
     Copy OK
Track 14
     Filename C:\Program Files (x86)\Exact Audio Copy\Flac\14. So Damn Happy.wav
     Pre-gap length  0:00:00.58
     Peak level 100.0 %
     Extraction speed 2.1 X
     Track quality 99.9 %
     Test CRC A8C62E96
     Copy CRC A8C62E96
     Accurately ripped (confidence 8)  [46D45DFF]  (AR v2)
     Copy OK
Track 15
     Filename C:\Program Files (x86)\Exact Audio Copy\Flac\15. Higher Ground.wav
     Pre-gap length  0:00:00.58
     Peak level 100.0 %
     Extraction speed 2.1 X
     Track quality 99.9 %
     Test CRC E9B2102D
     Copy CRC E9B2102D
     Accurately ripped (confidence 8)  [4D373ABE]  (AR v2)
     Copy OK
Track 16
     Filename C:\Program Files (x86)\Exact Audio Copy\Flac\16. Oh Happy Day.wav
     Pre-gap length  0:00:00.58
     Peak level 100.0 %
     Extraction speed 2.5 X
     Track quality 100.0 %
     Test CRC 4B91D152
     Copy CRC 4B91D152
     Accurately ripped (confidence 8)  [FFFFEE1E]  (AR v2)
     Copy OK
Track 17
     Filename C:\Program Files (x86)\Exact Audio Copy\Flac\17. Packing Up, Getting Ready To Go.wav
     Pre-gap length  0:00:00.58
     Peak level 100.0 %
     Extraction speed 2.3 X
     Track quality 99.9 %
     Test CRC DAE46855
     Copy CRC DAE46855
     Accurately ripped (confidence 8)  [9F2B2D72]  (AR v2)
     Copy OK
All tracks accurately ripped
No errors occurred
End of status report
---- CUETools DB Plugin V2.1.6
[CTDB TOCID: moZmhj7QpLrbBXNsBicB.lceslg-] found
Submit result: moZmhj7QpLrbBXNsBicB.lceslg- has been confirmed
Track | CTDB Status
  1   | (20/21) Accurately ripped
  2   | (20/21) Accurately ripped
  3   | (20/21) Accurately ripped
  4   | (20/21) Accurately ripped
  5   | (20/21) Accurately ripped
  6   | (20/21) Accurately ripped
  7   | (19/21) Accurately ripped
  8   | (20/21) Accurately ripped
  9   | (20/21) Accurately ripped
 10   | (19/21) Accurately ripped
 11   | (20/21) Accurately ripped
 12   | (20/21) Accurately ripped
 13   | (20/21) Accurately ripped
 14   | (20/21) Accurately ripped
 15   | (19/21) Accurately ripped
 16   | (20/21) Accurately ripped
 17   | (20/21) Accurately ripped
==== Log checksum EE7DC8200C561E0BF79F0246CEC2C8C00F7396520D51FA9A08638CF7B0A85154 ====
Содержание индексной карты (.CUE)
REM GENRE Soul
REM DATE 2014
REM DISCID 0F123311
REM COMMENT "ExactAudioCopy v1.3"
PERFORMER "Aretha Franklin"
TITLE "The Real... Aretha Franklin (CD3)"
REM COMPOSER ""
FILE "01. A Deeper Love.wav" WAVE
  TRACK 01 AUDIO
    TITLE "A Deeper Love"
    PERFORMER "Aretha Franklin"
    REM COMPOSER ""
    INDEX 01 00:00:00
  TRACK 02 AUDIO
    TITLE "Everyday People"
    PERFORMER "Aretha Franklin"
    REM COMPOSER ""
    INDEX 00 04:41:64
FILE "02. Everyday People.wav" WAVE
    INDEX 01 00:00:00
  TRACK 03 AUDIO
    TITLE "Doctors Orders"
    PERFORMER "Aretha Franklin"
    REM COMPOSER ""
    INDEX 00 03:48:35
FILE "03. Doctors Orders.wav" WAVE
    INDEX 01 00:00:00
  TRACK 04 AUDIO
    TITLE "Ever Changing Times"
    PERFORMER "Aretha Franklin"
    REM COMPOSER ""
    INDEX 00 04:33:21
FILE "04. Ever Changing Times.wav" WAVE
    INDEX 01 00:00:00
  TRACK 05 AUDIO
    TITLE "Mary Goes Round"
    PERFORMER "Aretha Franklin"
    REM COMPOSER ""
    INDEX 00 04:53:15
FILE "05. Mary Goes Round.wav" WAVE
    INDEX 01 00:00:00
  TRACK 06 AUDIO
    TITLE "Willing To Forgive"
    PERFORMER "Aretha Franklin"
    REM COMPOSER ""
    INDEX 00 03:04:22
FILE "06. Willing To Forgive.wav" WAVE
    INDEX 01 00:00:00
  TRACK 07 AUDIO
    TITLE "A Rose Is Still A Rose"
    PERFORMER "Aretha Franklin"
    REM COMPOSER ""
    INDEX 00 04:05:47
FILE "07. A Rose Is Still A Rose.wav" WAVE
    INDEX 01 00:00:00
  TRACK 08 AUDIO
    TITLE "Here We Go Again"
    PERFORMER "Aretha Franklin"
    REM COMPOSER ""
    INDEX 00 04:25:51
FILE "08. Here We Go Again.wav" WAVE
    INDEX 01 00:00:00
  TRACK 09 AUDIO
    TITLE "I'll Dip"
    PERFORMER "Aretha Franklin"
    REM COMPOSER ""
    INDEX 00 03:28:37
FILE "09. I'll Dip.wav" WAVE
    INDEX 01 00:00:00
  TRACK 10 AUDIO
    TITLE "The Woman"
    PERFORMER "Aretha Franklin"
    REM COMPOSER ""
    INDEX 00 04:02:73
FILE "10. The Woman.wav" WAVE
    INDEX 01 00:00:00
  TRACK 11 AUDIO
    TITLE "Someone Else's Eyes"
    PERFORMER "Aretha Franklin"
    REM COMPOSER ""
    INDEX 00 07:41:15
FILE "11. Someone Else's Eyes.wav" WAVE
    INDEX 01 00:00:00
  TRACK 12 AUDIO
    TITLE "The Only Thing Missin'"
    PERFORMER "Aretha Franklin"
    REM COMPOSER ""
    INDEX 00 04:55:12
FILE "12. The Only Thing Missin'.wav" WAVE
    INDEX 01 00:00:00
  TRACK 13 AUDIO
    TITLE "Holdin' On"
    PERFORMER "Aretha Franklin"
    REM COMPOSER ""
    INDEX 00 03:07:02
FILE "13. Holdin' On.wav" WAVE
    INDEX 01 00:00:00
  TRACK 14 AUDIO
    TITLE "So Damn Happy"
    PERFORMER "Aretha Franklin"
    REM COMPOSER ""
    INDEX 00 04:33:72
FILE "14. So Damn Happy.wav" WAVE
    INDEX 01 00:00:00
  TRACK 15 AUDIO
    TITLE "Higher Ground"
    PERFORMER "Aretha Franklin"
    REM COMPOSER ""
    INDEX 00 04:28:33
FILE "15. Higher Ground.wav" WAVE
    INDEX 01 00:00:00
  TRACK 16 AUDIO
    TITLE "Oh Happy Day"
    PERFORMER "Aretha Franklin"
    REM COMPOSER ""
    INDEX 00 03:54:47
FILE "16. Oh Happy Day.wav" WAVE
    INDEX 01 00:00:00
  TRACK 17 AUDIO
    TITLE "Packing Up, Getting Ready To Go"
    PERFORMER "Aretha Franklin"
    REM COMPOSER ""
    INDEX 00 06:08:23
FILE "17. Packing Up, Getting Ready To Go.wav" WAVE
    INDEX 01 00:00:00
Состав:
  • Aretha Franklin Primary Artist
  • Michael McDonald Featured Artist
  • Mavis Staples Featured Artist
  • Luther Vandross Primary Artist
  • Rev. Jasper Williams Featured Artist
Приватный:
Нет (DHT включён)
Размер:
1.37 Гб (1,476,351,546 байт) » файлов: 68
Участники:
0 раздают, 0 качают (0 участников всего)
Внешние участники:
Нет внешних трекеров [ Обновить ]
12:54
42
RSS
Нет комментариев. Ваш будет первым!