Поиск

2013 ZZ Quartet with Ratko Zjaca & Simone Zanchini - Beyond the Lines {In+Out} [24-44.1]

2013 ZZ Quartet with Ratko Zjaca & Simone Zanchini - Beyond the Lines {In+Out} [24-44.1]
Стили:
Место записи:
Kleine Audiowelt
Дата издания диска:
11 августа 2016
Издатель (лейбл):
Номер по каталогу:
IOR CD 77117-2
Носитель:
WEB
Формат:
PCM
Тип рипа:
tracks
Контейнер:
FLAC (*.flac)
Количество каналов:
2.0
Разрядность/ЧД:
24/44,1
Битрейт аудио:
lossless
Время звучания:
00:57:11
Наличие сканов:
только обложка

01 - Voglio Una Donna 03:29
02 - Celtico 04:36
03 - River Spirit 06:54
04 - Freak in Freak Out 04:48
05 - The Clockwork 06:32
06 - Bale Con La Uno 05:48
07 - The Judge Says You Are Innocent 04:55
08 - Days of Old 03:51
09 - The Lost Call 06:11
10 - he South Song 05:03
11 - The Easy Whistler 05:04

Состав:
  • Ratko Zjaca, electric guitar, acoustic & bariton guitar, effects
  • Simone Zanchini, accordion, live electronics
  • Martin Gjakonovski, double bass
  • Adam Nussbaum, drums
Лог проверки качества
foobar2000 1.4.3 / Dynamic Range Meter 1.1.1
log date: 2021-11-25 20:46:38
--------------------------------------------------------------------------------
Analyzed: ZZ Quartet / Beyond the Lines
--------------------------------------------------------------------------------
DR         Peak         RMS     Duration Track
--------------------------------------------------------------------------------
DR12      -1.05 dB   -15.98 dB      3:29 01-Voglio Una Donna
DR11      -3.18 dB   -16.01 dB      4:36 02-Celtico
DR13      -1.05 dB   -16.57 dB      6:55 03-River Spirit
DR11      -1.05 dB   -14.27 dB      4:49 04-Freak in Freak Out
DR11      -1.05 dB   -14.45 dB      6:33 05-The Clockwork
DR13      -1.06 dB   -18.40 dB      5:49 06-Bale Con La Uno
DR12      -1.05 dB   -15.51 dB      4:55 07-The Judge Says You Are Innocent
DR12      -1.05 dB   -15.59 dB      3:52 08-Days of Old
DR9       -1.05 dB   -13.28 dB      6:12 09-The Lost Call
DR11      -1.05 dB   -15.59 dB      5:04 10-The South Song
DR13      -1.06 dB   -17.40 dB      5:04 11-The Easy Whistler
--------------------------------------------------------------------------------
Number of tracks:  11
Official DR value: DR12
Samplerate:        44100 Hz
Channels:          2
Bits per sample:   24
Bitrate:           1434 kbps
Codec:             FLAC
================================================================================
Приватный:
Нет (DHT включён)
Размер:
629.63 Мб (660,211,646 байт) » файлов: 17
Участники:
0 раздают, 0 качают (0 участников всего)
Внешние участники:
--- [ Обновить ]
11:04
452
Нет комментариев. Ваш будет первым!