Поиск

2013 VA - The Stockfisch DMM-CD/SACD, Vol. 1 {Stockfisch} [DSD64 ISO]

2013 VA - The Stockfisch DMM-CD/SACD, Vol. 1 {Stockfisch} [DSD64 ISO]
Издатель (лейбл):
Треклист:

01. Chris Jones: No Sanctuary Here
02. Steve Strauss: Closer
03. Brooke Miller: What You Know
04. The Greater Good: If I Could
05. Ewen Carruthers: That Train
06. Sara K. & Chris Jones: Stop Those Bells LIVE
07. Paul O'Brien: Sonny's Dream
08. Carl Cleves & Parissa Bouas: Tough
09. David Munyon: Four Wild Horses
10. David Roth: The Greater Good Of All
11. Mckinley Black: My Diamond Mine
12. Allan Taylor: Like A Cloud
13. Mary MacMaster & Donald Hay: No Sleep

 
Лог проверки качества
foobar2000 1.3.7 / Dynamic Range Meter 1.1.1
log date: 2016-02-28 23:34:07
--------------------------------------------------------------------------------
Analyzed: Various Artists / The Stockfisch DMM-CD/SACD
--------------------------------------------------------------------------------
DR         Peak         RMS     Duration Track
--------------------------------------------------------------------------------
DR11      -0.78 dB   -14.60 dB      3:50 01-No Sanctuary Here
DR12      -1.94 dB   -16.70 dB      4:17 02-Closer
DR9       -4.75 dB   -17.01 dB      3:22 03-What You Know
DR10      -5.23 dB   -17.77 dB      2:38 04-If I Could
DR11      -3.18 dB   -18.09 dB      4:45 05-That Train
DR12      -3.06 dB   -17.93 dB      3:41 06-Stop Those Bells LIVE
DR9       -3.59 dB   -15.42 dB      4:14 07-Sonny's Dream
DR9       -3.84 dB   -15.83 dB      3:33 08-Tough
DR11      -1.22 dB   -16.86 dB      4:43 09-Four Wild Horses
DR9       -3.84 dB   -15.43 dB      3:31 10-The Greater Good Of All
DR10      -2.64 dB   -15.71 dB      4:16 11-My Diamond Mine
DR11      -2.10 dB   -15.89 dB      3:31 12-Like A Cloud
DR11      -1.18 dB   -13.36 dB      3:39 13-No Sleep
--------------------------------------------------------------------------------
Number of tracks:  13
Official DR value: DR11
Samplerate:        2822400 Hz / PCM Samplerate: 44100 Hz
Channels:          2
Bits per sample:   24
Bitrate:           5645 kbps
Codec:             DSD64
================================================================================
02:22
911
Нет комментариев. Ваш будет первым!