Поиск

2013 Utopianisti - Utopianisti II {Lusti Music & Arts Oy} [CD]

2013 Utopianisti - Utopianisti II {Lusti Music & Arts Oy} [CD]
Стили:
Треклист:
UTOPIANISTI II:
1. Mekonium fist. 3:51
2. The Vultures were hungry. 2:56
3. Pohjola. 8:09
4. Tango Succubus pt. 2. 5:10
5. The Forest of the Bald Witch. 6:47
6. Bisphenol A. 4:11
7. Kynttiloitakin vain yksi. 6:16
8. Spanking time. 6:01
UTOPIANISTI MEETS BLACK MOTOR & JON BALLANTYNE:
9. The Sundays of love and peace. 5:14
10. Mechanoid makeout music. 4:53
11. Too many eyeholes. 4:07
12. Derelicts in space. 11:35
BONUS TRACKS:
13. U.L.J.C. (The Unnecessary Leftover Jam Compilation). 9:38
Состав:
  • Utopianisti II (tracks 1-8 and 13):
  • Markus Pajakkala: drums, percussion, soprano- tenor & baritone saxophones, flute & alto flute, bass clarinet, mellotron, various ethnic instruments, programming (only in 2, 6 & 13!!), additional keyboards & vibraphone
  • with:
  • Jaan Wessman: electric bass (1, 3, 5, 6, 8)
  • Ville Rauhala: upright bass (4, 7)
  • Mika Tyyska aka Mr. Fastfinger: guitar (1)
  • Antero Mentu: guitar (3, 5, 6, 8 right channel, 13), sitar (13)
  • Anssi Salminen: guitar (7, 8 left channel, 13)
  • Juha Savela: guitar (4)
  • Kalle Elkomaa: organ (1, 3, 5), electric piano (3)
  • Tuomas Marttila: marimba (4), vibraphone (3, 6), congas (3)
  • Harri Kuusijarvi: accordion (4, 7)
  • Tero Hyvaluoma: fiddle (7)
  • Waltteri Torikka: vocals (2, 4)
  • Suvi Vayrynen: vocals (2)
  • Pharaoh Pirttikangas: vocals (8)
  • The Utopianisti Big Band (1,3,6,8):
  • Tommi Kolunen, Olli "Trumpenator" Helin & Jussi Toivonen: trumpet
  • Antti Hirvonen, Petri Juutilainen & Ulla Ahonen: trombone
  • Aulis Poyhonen: bass trombone
  • Kasper Haikonen & Masa Orpana: alto sax
  • Petri Nieminen & Maiju Virtanen: tenor sax
  • Markus Pajakkala: baritone sax
  • Recorded at Kangasala, Tampere, Pirkanmaan Musiikkiopisto, Tampereen Konservatorio, Helsinki Music House Studio and JJ Studio during autumn 2012 — autumn 2013.
  • Utopianisti meets Black Motor & Jon Ballantyne (tracks 9-12 + 13):
  • Sami Sippola: tenor saxophone
  • Ville Rauhala: upright bass
  • Simo Laihonen: drums
  • Jon Ballantyne: electric & grand piano
  • Markus Pajakkala: baritone saxophone, bass clarinet, percussion
Доп. инфо:

Носитель: CD
Страна-производитель диска: Finland
Год издания: 2013
Издатель (лейбл): Lusti Music & Arts Oy
Номер по каталогу: LUSTICD010
Страна: Finland
Аудиокодек: FLAC (*.flac)
Тип рипа: tracks+.cue
Битрейт аудио: lossless
Продолжительность: 78:48 min
Источник (релизер): свой рип c CD
Наличие сканов в содержимом раздачи:

Composed, written, conducted, engineered & produced by Markus Pajakkala.
Mr. Fastfinger recorded his parts himself in Porvoo.
Mastered by Svante Forsback at Chartmakers
CD layout by Tero Koskela
Released 04 November 2013

Лог создания рипа
Exact Audio Copy V1.0 beta 3 from 29. August 2011
EAC extraction logfile from 15. September 2014, 21:58
Utopianisti / Utopianisti II
Used drive  : ATAPI   iHAS124   E   Adapter: 0  ID: 0
Read mode               : Secure
Utilize accurate stream : Yes
Defeat audio cache      : Yes
Make use of C2 pointers : No
Read offset correction                      : 6
Overread into Lead-In and Lead-Out          : No
Fill up missing offset samples with silence : Yes
Delete leading and trailing silent blocks   : No
Null samples used in CRC calculations       : Yes
Used interface                              : Native Win32 interface for Win NT & 2000
Gap handling                                : Appended to previous track
Used output format : Internal WAV Routines
Sample format      : 44.100 Hz; 16 Bit; Stereo
TOC of the extracted CD
     Track |   Start  |  Length  | Start sector | End sector
    ---------------------------------------------------------
        1  |  0:00.00 |  3:51.28 |         0    |    17352
        2  |  3:51.28 |  2:56.18 |     17353    |    30570
        3  |  6:47.46 |  8:09.24 |     30571    |    67269
        4  | 14:56.70 |  5:10.01 |     67270    |    90520
        5  | 20:06.71 |  6:47.27 |     90521    |   121072
        6  | 26:54.23 |  4:11.56 |    121073    |   139953
        7  | 31:06.04 |  6:16.12 |    139954    |   168165
        8  | 37:22.16 |  6:01.65 |    168166    |   195305
        9  | 43:24.06 |  5:14.06 |    195306    |   218861
       10  | 48:38.12 |  4:53.61 |    218862    |   240897
       11  | 53:31.73 |  4:07.01 |    240898    |   259423
       12  | 57:38.74 | 11:35.18 |    259424    |   311566
       13  | 69:14.17 |  9:38.25 |    311567    |   354941
Track  1
     Filename C:\_EAC\01 Mekonium fist.wav
     Pre-gap length  0:00:02.00
     Peak level 99.9 %
     Extraction speed 1.0 X
     Track quality 99.9 %
     Test CRC 7CC50A72
     Copy CRC 7CC50A72
     Accurately ripped (confidence 1)  [C4358D7C]  (AR v2)
     Copy OK
Track  2
     Filename C:\_EAC\02 The Vultures were hungry.wav
     Peak level 99.5 %
     Extraction speed 1.2 X
     Track quality 100.0 %
     Test CRC EA35ED34
     Copy CRC EA35ED34
     Accurately ripped (confidence 1)  [9EC92DCC]  (AR v2)
     Copy OK
Track  3
     Filename C:\_EAC\03 Pohjola.wav
     Peak level 99.7 %
     Extraction speed 1.5 X
     Track quality 100.0 %
     Test CRC EB8DED8A
     Copy CRC EB8DED8A
     Accurately ripped (confidence 1)  [F6A264AF]  (AR v2)
     Copy OK
Track  4
     Filename C:\_EAC\04 Tango Succubus pt. 2.wav
     Peak level 99.6 %
     Extraction speed 1.6 X
     Track quality 100.0 %
     Test CRC A8243D4C
     Copy CRC A8243D4C
     Accurately ripped (confidence 1)  [D26364BF]  (AR v2)
     Copy OK
Track  5
     Filename C:\_EAC\05 The Forest of the Bald Witch.wav
     Peak level 94.0 %
     Extraction speed 1.6 X
     Track quality 99.9 %
     Test CRC B0C5840D
     Copy CRC B0C5840D
     Accurately ripped (confidence 1)  [B50A910D]  (AR v2)
     Copy OK
Track  6
     Filename C:\_EAC\06 Bisphenol A.wav
     Peak level 100.0 %
     Extraction speed 1.7 X
     Track quality 100.0 %
     Test CRC F08A870D
     Copy CRC F08A870D
     Accurately ripped (confidence 1)  [BC7E4373]  (AR v2)
     Copy OK
Track  7
     Filename C:\_EAC\07 Kynttiloitakin vain yksi.wav
     Peak level 99.8 %
     Extraction speed 1.8 X
     Track quality 99.9 %
     Test CRC BB9044EC
     Copy CRC BB9044EC
     Accurately ripped (confidence 1)  [8349B77C]  (AR v2)
     Copy OK
Track  8
     Filename C:\_EAC\08 Spanking time.wav
     Peak level 99.7 %
     Extraction speed 1.9 X
     Track quality 99.9 %
     Test CRC 9991D0DE
     Copy CRC 9991D0DE
     Accurately ripped (confidence 1)  [FDC5D041]  (AR v2)
     Copy OK
Track  9
     Filename C:\_EAC\09 The Sundays of love and peace.wav
     Peak level 100.0 %
     Extraction speed 1.9 X
     Track quality 99.9 %
     Test CRC E26A8A09
     Copy CRC E26A8A09
     Accurately ripped (confidence 1)  [389533CE]  (AR v2)
     Copy OK
Track 10
     Filename C:\_EAC\10 Mechanoid makeout music.wav
     Peak level 100.0 %
     Extraction speed 1.9 X
     Track quality 99.9 %
     Test CRC 25FD66A5
     Copy CRC 25FD66A5
     Accurately ripped (confidence 1)  [A6E1AF6F]  (AR v2)
     Copy OK
Track 11
     Filename C:\_EAC\11 Too many eyeholes.wav
     Peak level 93.8 %
     Extraction speed 1.9 X
     Track quality 99.9 %
     Test CRC 3BA86EC1
     Copy CRC 3BA86EC1
     Accurately ripped (confidence 1)  [8C772EA8]  (AR v2)
     Copy OK
Track 12
     Filename C:\_EAC\12 Derelicts in space.wav
     Peak level 99.5 %
     Extraction speed 2.5 X
     Track quality 100.0 %
     Test CRC 5F615719
     Copy CRC 5F615719
     Accurately ripped (confidence 1)  [C59D8D1F]  (AR v2)
     Copy OK
Track 13
     Filename C:\_EAC\13 U.L.J.C. (The Unnecessary Leftover Jam Compilation) (bonus track).wav
     Peak level 94.3 %
     Extraction speed 2.5 X
     Track quality 99.9 %
     Test CRC 9769FBF6
     Copy CRC 9769FBF6
     Accurately ripped (confidence 1)  [B458FB87]  (AR v2)
     Copy OK
All tracks accurately ripped
No errors occurred
End of status report
По всем вопросам пишите личное сообщение пользователю M0p94ok.
09:39
185
Нет комментариев. Ваш будет первым!