Вы используете незарегистрированную версию компонента "Вкладки"!

Поиск

2013 Tonbruket - Nubium Swimtrip {ACT Music ACT9558-2} [24-44,1]

2013 Tonbruket - Nubium Swimtrip {ACT Music ACT9558-2} [24-44,1]
Стили:
Место записи:
Abbey Road Studios, London
Издатель (лейбл):
Номер по каталогу:
ACT 9558-2
Носитель:
WEB
Формат:
PCM
Тип рипа:
tracks+.cue
Контейнер:
FLAC (*.flac)
Количество каналов:
2.0
Разрядность/ЧД:
24/44,1
Время звучания:
01:01:43
Наличие сканов:
да
Релизёр (источник):
M0p94ok
Лог проверки качества
foobar2000 1.3.16 / Dynamic Range Meter 1.1.1
log date: 2019-01-03 00:48:23

--------------------------------------------------------------------------------
Analyzed: Tonbruket / Nubium Swimtrip
--------------------------------------------------------------------------------

DR         Peak         RMS     Duration Track
--------------------------------------------------------------------------------
DR10      -0.30 dB   -13.09 dB      5:11 01-A Road (To Anders Burman)
DR9       -0.17 dB   -10.78 dB      6:45 02-Nightmusic
DR12      -0.48 dB   -17.45 dB      5:13 03-Little Bruk
DR12      -0.30 dB   -14.42 dB      7:12 04-Liga
DR11      -0.30 dB   -16.95 dB      7:59 05-Nubium Swimtrip
DR8       -0.30 dB    -9.52 dB      4:52 06-The Harmonist
DR10      -0.30 dB   -12.68 dB      7:18 07-Dukes and Wells
DR9       -0.30 dB   -11.63 dB      5:56 08-Arbat
DR10      -0.30 dB   -12.57 dB      4:08 09-Peace
DR12      -0.30 dB   -16.22 dB      3:36 10-Closing
DR10      -9.10 dB   -22.87 dB      3:33 11-Floatsome
--------------------------------------------------------------------------------

Number of tracks:  11
Official DR value: DR10

Samplerate:        44100 Hz
Channels:          2
Bits per sample:   24
Bitrate:           1198 kbps
Codec:             FLAC
================================================================================
Any questions - support@pro-jazz.com. Есть вопросы - support@pro-jazz.com
18:54
277
Нет комментариев. Ваш будет первым!