Поиск

2013 Scott Fields, Jeffrey Lependorf - Everything Is In The Instructions {Ayler AYLCD-135} [CD]

2013 Scott Fields, Jeffrey Lependorf - Everything Is In The Instructions {Ayler AYLCD-135} [CD]
Треклист:

1 She Comes From Somewhere
2 Terror Babies
3 Objects In Relation To Other Objects
4 Oh, Yes
5 The Politics Of Solitude
6 Tip Bloused
7 Advice For Some Young Men In The Year 2064 A.D.
8 Naima

Жанр: Avant-Garde Jazz
Носитель: CD
Страна-производитель диска (релиза): France
Год издания: 2013
Издатель (лейбл): Ayler Records
Номер по каталогу: AYLCD-135
Аудиокодек: FLAC (*.flac)
Тип рипа: tracks+.cue
Битрейт аудио: lossless
Продолжительность: 01:02:17
Источник: локальная сеть
Наличие сканов в содержимом раздачи: нет

Лог создания рипа
X Lossless Decoder version 20130720 (144.0)

XLD extraction logfile from 2013-10-29 03:51:25 +0400

Scott Fields, Jeffrey Lependorf / Everything is in the Instructions

Used drive : HL-DT-ST DVDRW  GX30N (revision RP09)
Media type : Pressed CD

Ripper mode             : XLD Secure Ripper
Disable audio cache     : OK for the drive with a cache less than 1375KiB
Make use of C2 pointers : NO
Read offset correction  : 6
Max retry count         : 100
Gap status              : Analyzed, Appended (except HTOA)

TOC of the extracted CD
     Track |   Start  |  Length  | Start sector | End sector
    ---------------------------------------------------------
        1  | 00:00:00 | 06:26:40 |         0    |    28989
        2  | 06:26:40 | 05:46:16 |     28990    |    54955
        3  | 12:12:56 | 08:12:08 |     54956    |    91863
        4  | 20:24:64 | 05:46:06 |     91864    |   117819
        5  | 26:10:70 | 11:18:59 |    117820    |   168728
        6  | 37:29:54 | 10:48:04 |    168729    |   217332
        7  | 48:17:58 | 06:58:56 |    217333    |   248738
        8  | 55:16:39 | 07:03:71 |    248739    |   280534

AccurateRip Summary
    Disc not found in AccurateRip DB.

All Tracks
    Album gain               : -3.68 dB
    Peak                     : 0.958923
    Statistics
        Read error                           : 0
        Jitter error (maybe fixed)           : 0
        Retry sector count                   : 0
        Damaged sector count                 : 0

Track 01
    Filename : /Users/Shared/Grabbed/Scott Fields, Jeffrey Lependorf - 2013 - Everything is in the Instructions [MP3 320]/01 - She Comes from Somewhere.mp3
               /Users/Shared/Grabbed/Scott Fields, Jeffrey Lependorf - 2013 - Everything is in the Instructions [MP3 V0]/01 - She Comes from Somewhere.mp3
               /Users/Shared/Grabbed/Scott Fields, Jeffrey Lependorf - 2013 - Everything is in the Instructions [FLAC]/01 - She Comes from Somewhere.flac
    Pre-gap length : 00:02:00

    Track gain               : -4.08 dB
    Peak                     : 0.925873
    CRC32 hash (test run)    : 584D7A4F
    CRC32 hash               : 584D7A4F
    CRC32 hash (skip zero)   : A898423C
    AccurateRip v1 signature : AC03DDE7
    AccurateRip v2 signature : D76F7B17
        ->Track not present in AccurateRip database.
    Statistics
        Read error                           : 0
        Jitter error (maybe fixed)           : 0
        Retry sector count                   : 0
        Damaged sector count                 : 0

Track 02
    Filename : /Users/Shared/Grabbed/Scott Fields, Jeffrey Lependorf - 2013 - Everything is in the Instructions [MP3 320]/02 - Terror Babies.mp3
               /Users/Shared/Grabbed/Scott Fields, Jeffrey Lependorf - 2013 - Everything is in the Instructions [MP3 V0]/02 - Terror Babies.mp3
               /Users/Shared/Grabbed/Scott Fields, Jeffrey Lependorf - 2013 - Everything is in the Instructions [FLAC]/02 - Terror Babies.flac
    Pre-gap length : 00:05:71

    Track gain               : -5.18 dB
    Peak                     : 0.914612
    CRC32 hash (test run)    : EA2FCA15
    CRC32 hash               : EA2FCA15
    CRC32 hash (skip zero)   : 809198E0
    AccurateRip v1 signature : 93F67E72
    AccurateRip v2 signature : 76440F66
        ->Track not present in AccurateRip database.
    Statistics
        Read error                           : 0
        Jitter error (maybe fixed)           : 0
        Retry sector count                   : 0
        Damaged sector count                 : 0

Track 03
    Filename : /Users/Shared/Grabbed/Scott Fields, Jeffrey Lependorf - 2013 - Everything is in the Instructions [MP3 320]/03 - Objects in Relation to Other Objects.mp3
               /Users/Shared/Grabbed/Scott Fields, Jeffrey Lependorf - 2013 - Everything is in the Instructions [MP3 V0]/03 - Objects in Relation to Other Objects.mp3
               /Users/Shared/Grabbed/Scott Fields, Jeffrey Lependorf - 2013 - Everything is in the Instructions [FLAC]/03 - Objects in Relation to Other Objects.flac
    Pre-gap length : 00:06:20

    Track gain               : -2.12 dB
    Peak                     : 0.893188
    CRC32 hash (test run)    : 1A7614F6
    CRC32 hash               : 1A7614F6
    CRC32 hash (skip zero)   : 0E7AD372
    AccurateRip v1 signature : 9D647A84
    AccurateRip v2 signature : 7F20437D
        ->Track not present in AccurateRip database.
    Statistics
        Read error                           : 0
        Jitter error (maybe fixed)           : 0
        Retry sector count                   : 0
        Damaged sector count                 : 0

Track 04
    Filename : /Users/Shared/Grabbed/Scott Fields, Jeffrey Lependorf - 2013 - Everything is in the Instructions [MP3 320]/04 - Oh, Yes.mp3
               /Users/Shared/Grabbed/Scott Fields, Jeffrey Lependorf - 2013 - Everything is in the Instructions [MP3 V0]/04 - Oh, Yes.mp3
               /Users/Shared/Grabbed/Scott Fields, Jeffrey Lependorf - 2013 - Everything is in the Instructions [FLAC]/04 - Oh, Yes.flac
    Pre-gap length : 00:06:08

    Track gain               : -3.00 dB
    Peak                     : 0.821625
    CRC32 hash (test run)    : 7AE0F1DB
    CRC32 hash               : 7AE0F1DB
    CRC32 hash (skip zero)   : 75BF45F2
    AccurateRip v1 signature : 1FCE57AC
    AccurateRip v2 signature : DFEB350F
        ->Track not present in AccurateRip database.
    Statistics
        Read error                           : 0
        Jitter error (maybe fixed)           : 0
        Retry sector count                   : 0
        Damaged sector count                 : 0

Track 05
    Filename : /Users/Shared/Grabbed/Scott Fields, Jeffrey Lependorf - 2013 - Everything is in the Instructions [MP3 320]/05 - The Politics of Solitude.mp3
               /Users/Shared/Grabbed/Scott Fields, Jeffrey Lependorf - 2013 - Everything is in the Instructions [MP3 V0]/05 - The Politics of Solitude.mp3
               /Users/Shared/Grabbed/Scott Fields, Jeffrey Lependorf - 2013 - Everything is in the Instructions [FLAC]/05 - The Politics of Solitude.flac
    Pre-gap length : 00:06:14

    Track gain               : -3.17 dB
    Peak                     : 0.958923
    CRC32 hash (test run)    : 61DD0425
    CRC32 hash               : 61DD0425
    CRC32 hash (skip zero)   : C86D1430
    AccurateRip v1 signature : E48BF69F
    AccurateRip v2 signature : 39F22A12
        ->Track not present in AccurateRip database.
    Statistics
        Read error                           : 0
        Jitter error (maybe fixed)           : 0
        Retry sector count                   : 0
        Damaged sector count                 : 0

Track 06
    Filename : /Users/Shared/Grabbed/Scott Fields, Jeffrey Lependorf - 2013 - Everything is in the Instructions [MP3 320]/06 - Tip Bloused.mp3
               /Users/Shared/Grabbed/Scott Fields, Jeffrey Lependorf - 2013 - Everything is in the Instructions [MP3 V0]/06 - Tip Bloused.mp3
               /Users/Shared/Grabbed/Scott Fields, Jeffrey Lependorf - 2013 - Everything is in the Instructions [FLAC]/06 - Tip Bloused.flac
    Pre-gap length : 00:06:08

    Track gain               : -4.69 dB
    Peak                     : 0.952179
    CRC32 hash (test run)    : 9B674920
    CRC32 hash               : 9B674920
    CRC32 hash (skip zero)   : D11A6F6D
    AccurateRip v1 signature : 9CA8885C
    AccurateRip v2 signature : B81B1B87
        ->Track not present in AccurateRip database.
    Statistics
        Read error                           : 0
        Jitter error (maybe fixed)           : 0
        Retry sector count                   : 0
        Damaged sector count                 : 0

Track 07
    Filename : /Users/Shared/Grabbed/Scott Fields, Jeffrey Lependorf - 2013 - Everything is in the Instructions [MP3 320]/07 - Advice For Some Young Men in the Year 2064 A. D..mp3
               /Users/Shared/Grabbed/Scott Fields, Jeffrey Lependorf - 2013 - Everything is in the Instructions [MP3 V0]/07 - Advice For Some Young Men in the Year 2064 A. D..mp3
               /Users/Shared/Grabbed/Scott Fields, Jeffrey Lependorf - 2013 - Everything is in the Instructions [FLAC]/07 - Advice For Some Young Men in the Year 2064 A. D..flac
    Pre-gap length : 00:06:20

    Track gain               : -3.62 dB
    Peak                     : 0.715210
    CRC32 hash (test run)    : B9FEE6C5
    CRC32 hash               : B9FEE6C5
    CRC32 hash (skip zero)   : D97C856C
    AccurateRip v1 signature : 92E96E62
    AccurateRip v2 signature : E34F83FA
        ->Track not present in AccurateRip database.
    Statistics
        Read error                           : 0
        Jitter error (maybe fixed)           : 0
        Retry sector count                   : 0
        Damaged sector count                 : 0

Track 08
    Filename : /Users/Shared/Grabbed/Scott Fields, Jeffrey Lependorf - 2013 - Everything is in the Instructions [MP3 320]/08 - Naima.mp3
               /Users/Shared/Grabbed/Scott Fields, Jeffrey Lependorf - 2013 - Everything is in the Instructions [MP3 V0]/08 - Naima.mp3
               /Users/Shared/Grabbed/Scott Fields, Jeffrey Lependorf - 2013 - Everything is in the Instructions [FLAC]/08 - Naima.flac
    Pre-gap length : 00:12:09

    Track gain               : -2.38 dB
    Peak                     : 0.842407
    CRC32 hash (test run)    : E5FEDF92
    CRC32 hash               : E5FEDF92
    CRC32 hash (skip zero)   : BB06C740
    AccurateRip v1 signature : 4564DE86
    AccurateRip v2 signature : F8B625DD
        ->Track not present in AccurateRip database.
    Statistics
        Read error                           : 0
        Jitter error (maybe fixed)           : 0
        Retry sector count                   : 0
        Damaged sector count                 : 0

No errors occurred

End of status report

-----BEGIN XLD SIGNATURE-----
pZIAKNy6rUJiz594F98vMTOmu6G7ZnCld45No8WIZ8D3seA17b3RLPJygFm53A9j8g3n3RvqAimrB3_HX5gyc2AbedRH1hK7sJCoJXi
-----END XLD SIGNATURE-----
Содержание индексной карты (.CUE)
TITLE "Everything is in the Instructions"
PERFORMER "Scott Fields, Jeffrey Lependorf"
REM GENRE "Free Jazz"
REM DATE "2013"
REM DISCID 720E9C08
REM REPLAYGAIN_ALBUM_GAIN -3.68 dB
REM REPLAYGAIN_ALBUM_PEAK 0.958923
FILE "01 - She Comes from Somewhere.flac" WAVE
  TRACK 01 AUDIO
    TITLE "She Comes from Somewhere"
    PERFORMER "Scott Fields, Jeffrey Lependorf"
    FLAGS DCP
    REM COMMENT "Recorded at Topaz Studios, Cologne, Germany, on October 20, 2012."
    REM REPLAYGAIN_TRACK_GAIN -4.08 dB
    REM REPLAYGAIN_TRACK_PEAK 0.925873
    INDEX 01 00:00:00
  TRACK 02 AUDIO
    TITLE "Terror Babies"
    PERFORMER "Scott Fields, Jeffrey Lependorf"
    FLAGS DCP
    REM COMMENT "Recorded at Topaz Studios, Cologne, Germany, on October 20, 2012."
    REM REPLAYGAIN_TRACK_GAIN -5.18 dB
    REM REPLAYGAIN_TRACK_PEAK 0.914612
    INDEX 00 06:20:44
FILE "02 - Terror Babies.flac" WAVE
    INDEX 01 00:00:00
  TRACK 03 AUDIO
    TITLE "Objects in Relation to Other Objects"
    PERFORMER "Scott Fields, Jeffrey Lependorf"
    FLAGS DCP
    REM COMMENT "Recorded at Topaz Studios, Cologne, Germany, on October 20, 2012."
    REM REPLAYGAIN_TRACK_GAIN -2.12 dB
    REM REPLAYGAIN_TRACK_PEAK 0.893188
    INDEX 00 05:39:71
FILE "03 - Objects in Relation to Other Objects.flac" WAVE
    INDEX 01 00:00:00
  TRACK 04 AUDIO
    TITLE "Oh, Yes"
    PERFORMER "Scott Fields, Jeffrey Lependorf"
    FLAGS DCP
    REM COMMENT "Recorded at Topaz Studios, Cologne, Germany, on October 20, 2012."
    REM REPLAYGAIN_TRACK_GAIN -3.00 dB
    REM REPLAYGAIN_TRACK_PEAK 0.821625
    INDEX 00 08:06:00
FILE "04 - Oh, Yes.flac" WAVE
    INDEX 01 00:00:00
  TRACK 05 AUDIO
    TITLE "The Politics of Solitude"
    PERFORMER "Scott Fields, Jeffrey Lependorf"
    FLAGS DCP
    REM COMMENT "Recorded at Topaz Studios, Cologne, Germany, on October 20, 2012."
    REM REPLAYGAIN_TRACK_GAIN -3.17 dB
    REM REPLAYGAIN_TRACK_PEAK 0.958923
    INDEX 00 05:39:67
FILE "05 - The Politics of Solitude.flac" WAVE
    INDEX 01 00:00:00
  TRACK 06 AUDIO
    TITLE "Tip Bloused"
    PERFORMER "Scott Fields, Jeffrey Lependorf"
    FLAGS DCP
    REM COMMENT "Recorded at Topaz Studios, Cologne, Germany, on October 20, 2012."
    REM REPLAYGAIN_TRACK_GAIN -4.69 dB
    REM REPLAYGAIN_TRACK_PEAK 0.952179
    INDEX 00 11:12:51
FILE "06 - Tip Bloused.flac" WAVE
    INDEX 01 00:00:00
  TRACK 07 AUDIO
    TITLE "Advice For Some Young Men in the Year 2064 A. D."
    PERFORMER "Scott Fields, Jeffrey Lependorf"
    FLAGS DCP
    REM COMMENT "Recorded at Topaz Studios, Cologne, Germany, on October 20, 2012."
    REM REPLAYGAIN_TRACK_GAIN -3.62 dB
    REM REPLAYGAIN_TRACK_PEAK 0.715210
    INDEX 00 10:41:59
FILE "07 - Advice For Some Young Men in the Year 2064 A. D..flac" WAVE
    INDEX 01 00:00:00
  TRACK 08 AUDIO
    TITLE "Naima"
    PERFORMER "Scott Fields, Jeffrey Lependorf"
    FLAGS DCP
    REM COMMENT "Recorded at Topaz Studios, Cologne, Germany, on October 20, 2012."
    REM REPLAYGAIN_TRACK_GAIN -2.38 dB
    REM REPLAYGAIN_TRACK_PEAK 0.842407
    INDEX 00 06:46:47
FILE "08 - Naima.flac" WAVE
    INDEX 01 00:00:00
По всем вопросам пишите личное сообщение пользователю M0p94ok.
08:59
282
Нет комментариев. Ваш будет первым!