Поиск

2013 Pepe Rivero Trio - Bolero Chopin (2018) {Venus VHGD-319} [DSD64 ISO]

2013 Pepe Rivero Trio - Bolero Chopin (2018) {Venus VHGD-319} [DSD64 ISO]
Дата записи диска:
15 июля - 16 июля 2012
Дата переиздания диска:
28 сентября 2018
Издатель (лейбл):
Номер по каталогу:
VHGD-319
Носитель:
SACD
Формат:
DSD
Тип рипа:
tracks
Контейнер:
FLAC (*.flac)
Количество каналов:
2.0
Разрядность/ЧД:
64 (2,8 MHz/1 Bit)
Битрейт аудио:
lossless
Время звучания:
01:13:07
Наличие сканов:
да

pic
VENUS GIVES NEW LIFE TO JAZZ. VENUS is JAZZ.

Треклист:

01. Waltz in D-flat major, Op. 64-1 “Minute Waltz”
02. Nocturne in D-flat major, Op. 27-2
03. Fantaisie-Impromptu in C-sharp minor, Op. 66
04. Waltz in C-sharp minor, Op. 64-2
05. Polonaise in A-flat major, Op. 53 “Heroic”
06. Ballade No. 1 in G minor, Op. 23
07. Nocturne in B major, Op. 32-1
08. Prelude in E minor, Op. 28-4
09. Waltz in A-flat major, Op. 69-1
10. Nocturne in E-flat major, Op. 9-2

Состав:
  • Pepe Rivero — piano
  • Edward Perez — bass
  • Francisco Mela — drums
Лог проверки качества
foobar2000 1.6.4 / Dynamic Range Meter 1.1.1
log date: 2021-04-11 21:21:59

--------------------------------------------------------------------------------
Analyzed: PEPE RIVERO TRIO / Bolero Chopin
--------------------------------------------------------------------------------

DR         Peak         RMS     Duration Track
--------------------------------------------------------------------------------
DR7       -4.57 dB   -12.21 dB      4:59 01-Waltz In D-flat major, Op.64-1 "Minute Waltz,"
DR7       -5.33 dB   -14.91 dB      5:57 02-Nocturne In D-flat major, Op.27-2
DR6       -4.53 dB   -12.13 dB      8:01 03-Fantaisie - Impromptu In C-sharp minor, Op.66
DR7       -5.22 dB   -14.77 dB      7:22 04-Waltz In C-sharp minor, Op.64-2
DR7       -4.82 dB   -13.16 dB     12:51 05-Polonaise In A-flat major, Op.53 "Heroic"
DR7       -4.72 dB   -13.44 dB      8:52 06-Ballade No.1 In G minor, Op.23
DR7       -4.21 dB   -13.50 dB      7:00 07-Nocturne In B major,  Op.32-1
DR6       -5.18 dB   -13.02 dB      5:46 08-Prelude In E minor, Op.28-4
DR8       -5.04 dB   -14.49 dB      5:28 09-Waltz In A-flat major, Op.69-1
DR7       -4.79 dB   -13.55 dB      6:51 10-Nocturne In E-flat major, Op. 9-2
--------------------------------------------------------------------------------

Number of tracks:  10
Official DR value: DR7

Samplerate:        2822400 Hz / PCM Samplerate: 88200 Hz
Channels:          2
Bits per sample:   1
Bitrate:           5645 kbps
Codec:             DSD64
================================================================================
По всем вопросам пишите личное сообщение пользователю M0p94ok.
16:33
297
Нет комментариев. Ваш будет первым!