Поиск

2013 Mulatu Astatke - Sketches of Ethiopia {Jazz Village} [24-44,1]

2013 Mulatu Astatke - Sketches of Ethiopia {Jazz Village} [24-44,1]
Издатель (лейбл):

This album is available on our DC++ hub: dc.pro-jazz.com
Этот альбом доступен на нашем DC++ хабе: dc.pro-jazz.com

Треклист:

01 Azmari (05:00)
02 Gamo (05:15)
03 Hager Fiker (06:08)
04 Gambella (06:12)
05 Assosa Derache (10:03)
06 Gumuz (06:30)
07 Motherland Abay (08:34)
08 Surma (ft Fatoumata Diawara) (04:42)
09 Surma (ft Fatoumata Diawara) (Extended Version) (Bonus Track) (05:04)

Состав:
  • Mulatu Astatke  — vibraphone, piano, keyboards
  • Yohanes Afwork - washint (flute)
  • James Arben - flute, oboe, tenor saxophone, clarinet
  • Messale Asmamow - krarr (lute)
  • Richard Olatunde Baker - percussion
  • John Edwards - double-bass, bass
  • Indris Hassun - masinko (lute)
  • Alexander Hawkins - piano, keyboards
  • Danny Keane - keyboards, cello
  • Tom Skinner - drums
  • Tesfaye - lead vocals on 2, 4, 6
  • Byron Wallen - trumpet
  • Fatoumata Diawara - lead vocals on track 8, 9
Доп. инфо:

Формат записи/Источник записи: [TR24][OF]
Наличие водяных знаков: Нет
Год издания/переиздания диска: 2013
Продолжительность: 00:57:35
Наличие сканов в содержимом раздачи: да (сканы) + буклет pdf
Источник (релизер): qobuz

Контейнер: FLAC (*.flac)
Тип рипа: tracks
Разрядность: 24/44,1
Формат: PCM
Количество каналов: 2.0
Доп. информация: https://mulatuastatke.bandcamp.com/

Лог проверки качества
foobar2000 1.1.15 / Dynamic Range Meter 1.1.1
log date: 2019-10-24 11:23:02

--------------------------------------------------------------------------------
Analyzed: Mulatu Astatke / Sketches of Ethiopia
--------------------------------------------------------------------------------

DR         Peak         RMS     Duration Track
--------------------------------------------------------------------------------
DR10      -0.14 dB   -12.73 dB      5:01 01-Azmari
DR9       -0.23 dB   -10.47 dB      5:16 02-Gamo
DR9       -0.25 dB   -10.73 dB      6:09 03-Hager Fiker
DR9       -0.26 dB   -11.81 dB      6:13 04-Gambella
DR9       -0.22 dB   -11.84 dB     10:04 05-Assosa Derache
DR10      -0.35 dB   -12.29 dB      6:31 06-Gumuz
DR11      -0.27 dB   -15.47 dB      8:34 07-Motherland Abay
DR9       -0.54 dB   -11.66 dB      4:43 08-Surma
DR9       -0.27 dB   -11.34 dB      5:04 09-Surma (Extended Version)
--------------------------------------------------------------------------------

Number of tracks:  9
Official DR value: DR10

Samplerate:        44100 Hz
Channels:          2
Bits per sample:   24
Bitrate:           1596 kbps
Codec:             FLAC
================================================================================
16:36
810
Нет комментариев. Ваш будет первым!