Поиск

2013 La Pedroband - Rebulú {Trompe} [24-48]

2013 La Pedroband - Rebulú {Trompe} [24-48]
Стили:
Дата издания диска:
7 апреля 2013
Носитель:
WEB
Формат:
PCM
Тип рипа:
tracks
Контейнер:
FLAC (*.flac)
Количество каналов:
2.0
Разрядность/ЧД:
24/48
Битрейт аудио:
lossless
Наличие сканов:
только обложка

Треклист:

01. Tradicion Oral  05:32
02. Los Trigales  04:30
03. Longa Farahfaza  03:10
04. Palmenia Es Verdad  04:32
05. La Flor Nacional  04:54
06. Cántico Sólido  05:20
07. Péndulo  05:44
08. Frida (causa y Efecto)  02:56
09. Rebulú  01:00
10. Caudal  03:55
11. Bella Que Tienes Alma  03:47

Лог проверки качества
foobar2000 1.6.2 / Dynamic Range Meter 1.1.1
log date: 2021-10-14 21:18:37

--------------------------------------------------------------------------------
Analyzed: La Pedroband / Rebulú
--------------------------------------------------------------------------------

DR         Peak         RMS     Duration Track
--------------------------------------------------------------------------------
DR6       -0.20 dB    -8.46 dB      5:32 01-Tradicion Oral
DR6       -0.20 dB    -8.59 dB      4:30 02-Los Trigales
DR8       -0.20 dB   -10.89 dB      3:10 03-Longa Farahfaza
DR6       -0.20 dB    -8.03 dB      4:32 04-Palmenia Es Verdad
DR6       -0.20 dB    -7.54 dB      4:55 05-La Flor Nacional
DR7       -0.20 dB    -8.62 dB      5:20 06-Cántico Sólido
DR7       -0.20 dB    -8.48 dB      5:45 07-Péndulo
DR6       -0.20 dB    -7.84 dB      2:57 08-Frida (causa y Efecto)
DR7       -0.20 dB    -9.01 dB      1:01 09-Rebulú
DR5       -0.20 dB    -7.25 dB      3:55 10-Caudal
DR6       -2.20 dB   -10.94 dB      3:48 11-Bella Que Tienes Alma
--------------------------------------------------------------------------------

Number of tracks:  11
Official DR value: DR6

Samplerate:        48000 Hz
Channels:          2
Bits per sample:   24
Bitrate:           1383 kbps
Codec:             FLAC
================================================================================
По всем вопросам пишите личное сообщение пользователю M0p94ok.
20:30
269
Нет комментариев. Ваш будет первым!