Вы используете незарегистрированную версию компонента "Вкладки"!

Поиск

2013 Harold Lopez-Nussa - New Day {Jazz Village, Harmonia Mundi} [24-44,1]

2013 Harold Lopez-Nussa - New Day {Jazz Village, Harmonia Mundi} [24-44,1]
Битрейт аудио:
lossless
Доп. инфо:

Формат записи/Источник записи: [TR24][OF]
Наличие водяных знаков: Нет
Год издания/переиздания диска: 2013
Издатель (лейбл): Jazz Village / Harmonia Mundi
Продолжительность: 00:58:44
Наличие сканов в содержимом раздачи: Буклет PDF
Источник (релизер): highresaudio

Контейнер: FLAC (*.flac)
Тип рипа: tracks
Разрядность: 24/44,1
Формат: PCM
Количество каналов: 2.0

Лог проверки качества
foobar2000 1.1.15 / Dynamic Range Meter 1.1.1
log date: 2020-04-03 14:52:11

--------------------------------------------------------------------------------
Analyzed: Harold Lopez-Nussa / New Day
--------------------------------------------------------------------------------

DR         Peak         RMS     Duration Track
--------------------------------------------------------------------------------
DR10      -0.15 dB   -13.71 dB      4:40 01-A degüello
DR11      -0.10 dB   -13.25 dB      4:21 02-Cimarrón
DR10      -0.11 dB   -12.58 dB      6:54 03-Paseo
DR10      -0.13 dB   -13.21 dB      4:48 04-Fantasmas en caravana
DR11      -0.19 dB   -15.39 dB      6:31 05-Otro viaje
DR10      -0.15 dB   -13.30 dB      5:15 06-New day
DR11      -0.11 dB   -13.67 dB      5:01 07-Corriendo por los portales
DR12      -0.22 dB   -15.57 dB      5:11 08-Eso fue hace 20
DR11      -0.11 dB   -13.46 dB      4:40 09-Buenos modales
DR14      -0.25 dB   -19.53 dB      4:00 10-Enero
DR12      -0.08 dB   -14.50 dB      3:41 11-Otro güajiro en Paris
DR11      -0.19 dB   -13.32 dB      3:43 12-La paz que me domina
--------------------------------------------------------------------------------

Number of tracks:  12
Official DR value: DR11

Samplerate:        44100 Hz
Channels:          2
Bits per sample:   24
Bitrate:           1502 kbps
Codec:             FLAC
================================================================================
Any questions - support@pro-jazz.com. Есть вопросы - support@pro-jazz.com
22:11
292
Нет комментариев. Ваш будет первым!