Поиск

2013 Chieli Minucci & Special EFX - Genesis {Shanachie} [CD]

2013 Chieli Minucci & Special EFX - Genesis {Shanachie} [CD]
Стили:
Издатель (лейбл):
Номер по каталогу:
SHA-CD-5407
Носитель:
CD
Треклист:
01. Crazy Eights (3:49)
02. Till The End Of Time (5:24)
03. Mirage (4:29)
04. Blue Lagoon (4:09)
05. Far Away (4:29)
06. So It Begins (4:38)
07. Calico (5:54)
08. Genesis (3:51)
09. The Haunting (9:13)
10. Your Smile, My Heaven (7:25)
11. Club J Z (4:04)
12. Wishing (Wishing, Piroutte, Pas des Deux (7:52)
Состав:
  • Chieli Minucci — guitars, keyboards, programming
  • Jerry Brooks — bass
  • Lionel Cordew — drums
  • Jay Rowe — keyboards
  • Mino Cinelu — percussion
  • Guest Musicians:
  • Omar Hakim — drums
  • Lao Tizer — acoustic grand piano
  • Karen Briggs — violin
  • David Mann — saxophone & flute
  • Xu Feiyu — vocals
  • Vic Starsky — vocals
Доп. инфо:

Год издания: 2013
Номер по каталогу: 5407
Страна: USA
Аудиокодек: FLAC (*.flac)
Тип рипа: image+.cue
Битрейт аудио: lossless
Продолжительность: 1:05:17
Наличие сканов в содержимом раздачи: нет

Лог создания рипа
Exact Audio Copy V1.0 beta 3 from 29. August 2011
Отчёт EAC об извлечении, выполненном 3. августа 2013, 8:25
Chieli Minucci & Special EFX / Genesis
Дисковод: HL-DT-STDVDRAM GSA-T50N   Adapter: 0  ID: 1
Режим чтения                 : Достоверность
Использование точного потока : Да
Отключение кэша аудио        : Да
Использование указателей C2  : Нет
Коррекция смещения при чтении                     : 667
Способность читать области Lead-in и Lead-out     : Нет
Заполнение пропущенных сэмплов тишиной            : Да
Удаление блоков с тишиной в начале и конце        : Нет
При вычислениях CRC использовались нулевые сэмплы : Да
Интерфейс                                         : Встроенный Win32-интерфейс для Win NT/2000
Выходной формат          : Пользовательский кодировщик
Выбранный битрейт        : 128 kBit/s
Качество                 : Высокий
Добавление ID3-тега      : Нет
Утилита сжатия           : C:\Program Files\Exact Audio Copy\Flac\flac.exe
Дополнительные параметры : -V -8 -T "Date=%year%" -T "Genre=%genre%" %source%
TOC извлечённого CD
     Трек |   Старт  | Длительность | Начальный сектор | Конечный сектор
    ---------------------------------------------------------------------
       1  |  0:00.00 |    3:48.41   |           0      |      17140
       2  |  3:48.41 |    5:24.15   |       17141      |      41455
       3  |  9:12.56 |    4:29.01   |       41456      |      61631
       4  | 13:41.57 |    4:09.14   |       61632      |      80320
       5  | 17:50.71 |    4:29.18   |       80321      |     100513
       6  | 22:20.14 |    4:37.74   |      100514      |     121362
       7  | 26:58.13 |    5:53.71   |      121363      |     147908
       8  | 32:52.09 |    3:50.73   |      147909      |     165231
       9  | 36:43.07 |    9:13.20   |      165232      |     206726
      10  | 45:56.27 |    7:25.09   |      206727      |     240110
      11  | 53:21.36 |    4:03.38   |      240111      |     258373
      12  | 57:24.74 |    7:52.45   |      258374      |     293818
Характеристики диапазона извлечения и сообщения об ошибках
Выбранный диапазон
     Имя файла D:\Chieli Minucci & Special EFX - Genesis (2013)\Chieli Minucci & Special EFX - Genesis.wav
     Пиковый уровень 96.9 %
     Скорость извлечения 3.3 X
     Качество диапазона 100.0 %
     CRC теста 42A04225
     CRC копии 42A04225
     Копирование... OK
Ошибок не произошло
Конец отчёта
==== Контрольная сумма отчёта D870BE57D9F73CD426EBC9729D5562F7EA5632D1D4136ABA576FDED92C643DBF ====
04:56
346
Нет комментариев. Ваш будет первым!