Поиск

2013 Blank & Jones - Chilltronica № 4 {Soundcolours} [CD]

2013 Blank & Jones - Chilltronica № 4 {Soundcolours} [CD]
Стили:
Дата издания диска:
29 ноября 2013
Издатель (лейбл):
Номер по каталогу:
SC 0340
Носитель:
CD
Тип рипа:
tracks+.cue
Аудиокодек:
FLAC (*.flac)
Битрейт аудио:
lossless
Наличие сканов:
да
Треклист:

01. Blank & Jones - Lux Aeterna (5:42)
02. Bliss - North Atlantic Ocean (4:38)
03. Blank & Jones - Closer (Daylight Mix) (4:12)
04. Lulu Rouge with Alice Carreri - Crazy Epilogue (2:53)
05. Blank & Jones - A Forest (Chilltronica Mix) (8:31)
06. The Irrepressibles - New World (5:27)
07. Blank & Jones - Lost (5:53)
08. Blank & Jones with Stars - The Night Starts Here (Chilltronica Mix) (4:07)
09. Four Tet - Lion (Jamie xx Remix) (7:07)
10. Blank & Jones - Distance (4:07)
11. M83 - Wait (5:37)
12. Blank & Jones - Pura Vida (Daylight Ambient Mix) (5:11)
13. Antonymes - Delicate Power (3:57)
14. Blank & Jones - Gravity (4:00)
15. Tord Gustavsen Quartet - Prelude (2:46)

Лог создания рипа
Exact Audio Copy V1.0 beta 3 from 29. August 2011
EAC extraction logfile from 16. January 2014, 9:27
Blank & Jones / Chilltronica No.4
Used drive  : ASUS    DRW-24B3ST   Adapter: 1  ID: 2
Read mode               : Secure
Utilize accurate stream : Yes
Defeat audio cache      : Yes
Make use of C2 pointers : No
Read offset correction                      : 6
Overread into Lead-In and Lead-Out          : No
Fill up missing offset samples with silence : Yes
Delete leading and trailing silent blocks   : No
Null samples used in CRC calculations       : Yes
Used interface                              : Native Win32 interface for Win NT & 2000
Gap handling                                : Appended to previous track
Used output format              : User Defined Encoder
Selected bitrate                : 896 kBit/s
Quality                         : High
Add ID3 tag                     : No
Command line compressor         : C:\Program Files (x86)\Exact Audio Copy\Flac\flac.exe
Additional command line options : -8 -V -T "ARTIST=%artist%" -T "TITLE=%title%" -T "ALBUM=%albumtitle%" -T "DATE=%year%" -T "TRACKNUMBER=%tracknr%" -T "GENRE=%genre%" -T "COMMENT=ripped by Oleandris" %source%
TOC of the extracted CD
     Track |   Start  |  Length  | Start sector | End sector
    ---------------------------------------------------------
        1  |  0:00.03 |  5:42.21 |         3    |    25673
        2  |  5:42.24 |  4:38.33 |     25674    |    46556
        3  | 10:20.57 |  4:12.08 |     46557    |    65464
        4  | 14:32.65 |  2:52.38 |     65465    |    78402
        5  | 17:25.28 |  8:30.55 |     78403    |   116707
        6  | 25:56.08 |  5:26.71 |    116708    |   141228
        7  | 31:23.04 |  5:53.25 |    141229    |   167728
        8  | 37:16.29 |  4:06.54 |    167729    |   186232
        9  | 41:23.08 |  7:06.73 |    186233    |   218255
       10  | 48:30.06 |  4:07.14 |    218256    |   236794
       11  | 52:37.20 |  5:37.08 |    236795    |   262077
       12  | 58:14.28 |  5:11.07 |    262078    |   285409
       13  | 63:25.35 |  3:56.40 |    285410    |   303149
       14  | 67:22.00 |  3:59.66 |    303150    |   321140
       15  | 71:21.66 |  2:45.73 |    321141    |   333588
Track  1
     Filename F:\ЗАГРУЗКИ\ Blank & Jones - Chilltronica №4 (2013)\01. Blank & Jones - Lux Aeterna.wav
     Pre-gap length  0:00:02.03
     Peak level 83.1 %
     Extraction speed 3.3 X
     Track quality 99.9 %
     Test CRC 5AD97ED1
     Copy CRC 5AD97ED1
     Accurately ripped (confidence 4)  [6BA574BD]  (AR v2)
     Copy OK
Track  2
     Filename F:\ЗАГРУЗКИ\ Blank & Jones - Chilltronica №4 (2013)\02. Bliss - North Atlantic Ocean.wav
     Peak level 75.0 %
     Extraction speed 4.3 X
     Track quality 100.0 %
     Test CRC 7C7E40BB
     Copy CRC 7C7E40BB
     Accurately ripped (confidence 4)  [53F608E0]  (AR v2)
     Copy OK
Track  3
     Filename F:\ЗАГРУЗКИ\ Blank & Jones - Chilltronica №4 (2013)\03. Blank & Jones - Closer (Daylight Mix).wav
     Peak level 95.5 %
     Extraction speed 4.6 X
     Track quality 100.0 %
     Test CRC 3DA47976
     Copy CRC 3DA47976
     Accurately ripped (confidence 4)  [73748E99]  (AR v2)
     Copy OK
Track  4
     Filename F:\ЗАГРУЗКИ\ Blank & Jones - Chilltronica №4 (2013)\04. Lulu Rouge with Alice Carreri - Crazy Epilogue.wav
     Peak level 82.8 %
     Extraction speed 4.5 X
     Track quality 100.0 %
     Test CRC BA5725CA
     Copy CRC BA5725CA
     Accurately ripped (confidence 4)  [4E080167]  (AR v2)
     Copy OK
Track  5
     Filename F:\ЗАГРУЗКИ\ Blank & Jones - Chilltronica №4 (2013)\05. Blank & Jones - A Forest (Chilltronica Mix).wav
     Peak level 98.8 %
     Extraction speed 5.6 X
     Track quality 100.0 %
     Test CRC E18B60FE
     Copy CRC E18B60FE
     Accurately ripped (confidence 4)  [98185D9A]  (AR v2)
     Copy OK
Track  6
     Filename F:\ЗАГРУЗКИ\ Blank & Jones - Chilltronica №4 (2013)\06. The Irrepressibles - New World.wav
     Peak level 87.2 %
     Extraction speed 5.8 X
     Track quality 100.0 %
     Test CRC 25619C84
     Copy CRC 25619C84
     Accurately ripped (confidence 4)  [98B91DBF]  (AR v2)
     Copy OK
Track  7
     Filename F:\ЗАГРУЗКИ\ Blank & Jones - Chilltronica №4 (2013)\07. Blank & Jones - Lost.wav
     Peak level 87.2 %
     Extraction speed 6.2 X
     Track quality 100.0 %
     Test CRC 4589B582
     Copy CRC 4589B582
     Accurately ripped (confidence 4)  [33CD9978]  (AR v2)
     Copy OK
Track  8
     Filename F:\ЗАГРУЗКИ\ Blank & Jones - Chilltronica №4 (2013)\08. Blank & Jones with Stars - The Night Starts Here (Chilltronica Mix).wav
     Peak level 98.0 %
     Extraction speed 6.3 X
     Track quality 100.0 %
     Test CRC 7E04A01B
     Copy CRC 7E04A01B
     Accurately ripped (confidence 4)  [1FAA6686]  (AR v2)
     Copy OK
Track  9
     Filename F:\ЗАГРУЗКИ\ Blank & Jones - Chilltronica №4 (2013)\09. Four Tet - Lion (Jamie xx Remix).wav
     Peak level 85.1 %
     Extraction speed 6.9 X
     Track quality 100.0 %
     Test CRC D30310B5
     Copy CRC D30310B5
     Accurately ripped (confidence 4)  [CCCA3916]  (AR v2)
     Copy OK
Track 10
     Filename F:\ЗАГРУЗКИ\ Blank & Jones - Chilltronica №4 (2013)\10. Blank & Jones - Distance.wav
     Peak level 82.9 %
     Extraction speed 6.8 X
     Track quality 100.0 %
     Test CRC 4C4FB459
     Copy CRC 4C4FB459
     Accurately ripped (confidence 4)  [E516B039]  (AR v2)
     Copy OK
Track 11
     Filename F:\ЗАГРУЗКИ\ Blank & Jones - Chilltronica №4 (2013)\11. M83 - Wait.wav
     Peak level 74.0 %
     Extraction speed 7.3 X
     Track quality 100.0 %
     Test CRC 86A029C8
     Copy CRC 86A029C8
     Accurately ripped (confidence 4)  [9788F166]  (AR v2)
     Copy OK
Track 12
     Filename F:\ЗАГРУЗКИ\ Blank & Jones - Chilltronica №4 (2013)\12. Blank & Jones - Pura Vida (Daylight Ambient Mix).wav
     Peak level 98.8 %
     Extraction speed 6.3 X
     Track quality 99.9 %
     Test CRC B437F9E8
     Copy CRC B437F9E8
     Accurately ripped (confidence 4)  [3CCC2F48]  (AR v2)
     Copy OK
Track 13
     Filename F:\ЗАГРУЗКИ\ Blank & Jones - Chilltronica №4 (2013)\13. Antonymes - Delicate Power.wav
     Peak level 95.4 %
     Extraction speed 7.4 X
     Track quality 100.0 %
     Test CRC BE5F77DD
     Copy CRC BE5F77DD
     Accurately ripped (confidence 4)  [3E472429]  (AR v2)
     Copy OK
Track 14
     Filename F:\ЗАГРУЗКИ\ Blank & Jones - Chilltronica №4 (2013)\14. Blank & Jones - Gravity.wav
     Peak level 83.6 %
     Extraction speed 7.5 X
     Track quality 100.0 %
     Test CRC 110D49B2
     Copy CRC 110D49B2
     Accurately ripped (confidence 4)  [D7592D07]  (AR v2)
     Copy OK
Track 15
     Filename F:\ЗАГРУЗКИ\ Blank & Jones - Chilltronica №4 (2013)\15. Tord Gustavsen Quartet - Prelude.wav
     Pre-gap length  0:00:01.74
     Peak level 90.0 %
     Extraction speed 7.4 X
     Track quality 100.0 %
     Test CRC 1AFF21A8
     Copy CRC 1AFF21A8
     Accurately ripped (confidence 4)  [36B8C2F2]  (AR v2)
     Copy OK
All tracks accurately ripped
No errors occurred
End of status report
==== Log checksum A72225160D22626C5645E9A60D9C4F32E4FD0224DE6334748305BC37C1E22671 ====
По всем вопросам пишите личное сообщение пользователю M0p94ok.
23:49
252
Нет комментариев. Ваш будет первым!