Поиск

2012 Zsolt Kaltenecker 1705 Trio - 1705 (2021) {Hunnia} [24-96]

2012 Zsolt Kaltenecker 1705 Trio - 1705 (2021) {Hunnia} [24-96]
Стили:
Дата издания диска:
29 июля 2021
Издатель (лейбл):
Носитель:
WEB
Формат:
PCM
Тип рипа:
tracks
Контейнер:
FLAC (*.flac)
Количество каналов:
2.0
Разрядность/ЧД:
24/96
Битрейт аудио:
lossless
Время звучания:
01:00:44
Наличие сканов:
только обложка

Треклист:

1. Down The Hill  05:13
2. Arzúa  07:15
3. Eukalyptus Trees  06:18
4. Witches Everywhere  05:39
5. Indefinable  06:57
6. Sunshine Song  05:57
7. Prime Numbers  06:33
8. Space  10:58
9. Angels  05:57

Состав:
  • Zsolt Kaltenecker, piano
  • Béla Piri, double bass
  • András Dés, percussion
Лог проверки качества
foobar2000 1.4.2 / Dynamic Range Meter 1.1.1
log date: 2021-07-31 07:25:21
--------------------------------------------------------------------------------
Analyzed: Zsolt Kaltenecker 1705 Trio / 1705
--------------------------------------------------------------------------------
DR         Peak         RMS     Duration Track
--------------------------------------------------------------------------------
DR7       -0.36 dB    -9.84 dB      5:13 01-Down The Hill
DR8       -0.38 dB   -10.65 dB      7:15 02-ArzГєa
DR11      -0.42 dB   -14.84 dB      6:18 03-Eukalyptus Trees
DR6       -0.38 dB    -9.74 dB      5:39 04-Witches Everywhere
DR7       -0.38 dB    -9.73 dB      6:57 05-Indefinable
DR11      -0.42 dB   -15.57 dB      5:57 06-Sunshine Song
DR8       -0.39 dB    -9.84 dB      6:33 07-Prime Numbers
DR8       -0.32 dB   -12.64 dB     10:58 08-Space
DR9       -0.41 dB   -11.84 dB      5:57 09-Angels
--------------------------------------------------------------------------------
Number of tracks:  9
Official DR value: DR8
Samplerate:        96000 Hz
Channels:          2
Bits per sample:   24
Bitrate:           2765 kbps
Codec:             FLAC
================================================================================
19:13
489
Нет комментариев. Ваш будет первым!