Поиск

2012 Poppy Ackroyd - Escapement {Denovali DEN154} [CD]

2012 Poppy Ackroyd - Escapement {Denovali DEN154} [CD]
Битрейт аудио:
lossless
Треклист:

1. Aliquot (4:32)
2. Rain (5:11)
3. Seven (3:46)
4. Glass Sea (4:55)
5. Lyre (4:06)
6. Grounds (4:45)
7. Mechanism (4:15)

Доп. инфо:

Страна-производитель диска: EU
Год издания диска: 2012
Издатель (лейбл): Denovali Records
Номер по каталогу: DEN154
Страна: Great Britan
Аудиокодек: FLAC
Тип рипа: tracks+.cue
Продолжительность: 31:30
Источник: : what.cd (cramj)
Наличие сканов в содержимом раздачи: нет

Лог создания рипа
X Lossless Decoder version 20100704 (120.4)

XLD extraction logfile from 2012-11-28 11:52:57 +0100

Poppy Ackroyd / Escapement

Used drive : HL-DT-ST DVD-RW GH61N (revision PA03)

Use cdparanoia mode     : YES (CDParanoia III 10.2 engine)
Disable audio cache     : OK for the drive with cache less than 2750KB
Make use of C2 pointers : NO
Read offset correction  : 667
Max retry count         : 100
Gap status              : Analyzed, Appended

TOC of the extracted CD
     Track |   Start  |  Length  | Start sector | End sector
    ---------------------------------------------------------
        1  | 00:00:00 | 04:32:09 |         0    |    20408
        2  | 04:32:09 | 05:10:42 |     20409    |    43700
        3  | 09:42:51 | 03:46:07 |     43701    |    60657
        4  | 13:28:58 | 04:54:23 |     60658    |    82730
        5  | 18:23:06 | 04:06:12 |     82731    |   101192
        6  | 22:29:18 | 04:44:66 |    101193    |   122558
        7  | 27:14:09 | 04:14:66 |    122559    |   141674

All Tracks
    Album gain             : -2.63 dB
    Peak                   : 0.966156

Track 01
    Filename : /Music/Poppy Ackroyd - Escapement (2012) [FLAC]/01 - Aliquot.flac

    Pre-gap length : 00:02:00

    Track gain             : -2.24 dB
    Peak                   : 0.826385
    CRC32 hash (test run)  : 3D777EAD
    CRC32 hash             : 3D777EAD
    CRC32 hash (skip zero) : A2BA5ACA
    AccurateRip signature  : 6D340091
        ->Track not present in AccurateRip database.
    Statistics
        Read error                           : 0
        Skipped (treated as error)           : 0
        Edge jitter error (maybe fixed)      : 0
        Atom jitter error (maybe fixed)      : 0
        Drift error (maybe fixed)            : 0
        Dropped bytes error (maybe fixed)    : 0
        Duplicated bytes error (maybe fixed) : 0
        Inconsistency in error sectors       : 0

Track 02
    Filename : /Music/Poppy Ackroyd - Escapement (2012) [FLAC]/02 - Rain.flac

    Track gain             : -1.08 dB
    Peak                   : 0.966125
    CRC32 hash (test run)  : 67990C5C
    CRC32 hash             : 67990C5C
    CRC32 hash (skip zero) : 498D27BA
    AccurateRip signature  : 0E57A702
        ->Track not present in AccurateRip database.
    Statistics
        Read error                           : 0
        Skipped (treated as error)           : 0
        Edge jitter error (maybe fixed)      : 0
        Atom jitter error (maybe fixed)      : 0
        Drift error (maybe fixed)            : 0
        Dropped bytes error (maybe fixed)    : 0
        Duplicated bytes error (maybe fixed) : 0
        Inconsistency in error sectors       : 0

Track 03
    Filename : /Music/Poppy Ackroyd - Escapement (2012) [FLAC]/03 - Seven.flac

    Track gain             : -1.63 dB
    Peak                   : 0.900909
    CRC32 hash (test run)  : 60626C3B
    CRC32 hash             : 60626C3B
    CRC32 hash (skip zero) : DCBA72CE
    AccurateRip signature  : BAE928F9
        ->Track not present in AccurateRip database.
    Statistics
        Read error                           : 0
        Skipped (treated as error)           : 0
        Edge jitter error (maybe fixed)      : 0
        Atom jitter error (maybe fixed)      : 0
        Drift error (maybe fixed)            : 0
        Dropped bytes error (maybe fixed)    : 0
        Duplicated bytes error (maybe fixed) : 0
        Inconsistency in error sectors       : 0

Track 04
    Filename : /Music/Poppy Ackroyd - Escapement (2012) [FLAC]/04 - Glass Sea.flac

    Track gain             : -3.81 dB
    Peak                   : 0.904205
    CRC32 hash (test run)  : 4A4A1619
    CRC32 hash             : 4A4A1619
    CRC32 hash (skip zero) : 5D5DA952
    AccurateRip signature  : B00A9A03
        ->Track not present in AccurateRip database.
    Statistics
        Read error                           : 0
        Skipped (treated as error)           : 0
        Edge jitter error (maybe fixed)      : 0
        Atom jitter error (maybe fixed)      : 0
        Drift error (maybe fixed)            : 0
        Dropped bytes error (maybe fixed)    : 0
        Duplicated bytes error (maybe fixed) : 0
        Inconsistency in error sectors       : 0

Track 05
    Filename : /Music/Poppy Ackroyd - Escapement (2012) [FLAC]/05 - Lyre.flac

    Track gain             : -1.47 dB
    Peak                   : 0.966156
    CRC32 hash (test run)  : 71481012
    CRC32 hash             : 71481012
    CRC32 hash (skip zero) : 3A4EDD8D
    AccurateRip signature  : D3C124FA
        ->Track not present in AccurateRip database.
    Statistics
        Read error                           : 0
        Skipped (treated as error)           : 0
        Edge jitter error (maybe fixed)      : 0
        Atom jitter error (maybe fixed)      : 0
        Drift error (maybe fixed)            : 0
        Dropped bytes error (maybe fixed)    : 0
        Duplicated bytes error (maybe fixed) : 0
        Inconsistency in error sectors       : 0

Track 06
    Filename : /Music/Poppy Ackroyd - Escapement (2012) [FLAC]/06 - Grounds.flac

    Track gain             : -3.26 dB
    Peak                   : 0.916229
    CRC32 hash (test run)  : F60389FC
    CRC32 hash             : F60389FC
    CRC32 hash (skip zero) : 38C96C0D
    AccurateRip signature  : 58511AF6
        ->Track not present in AccurateRip database.
    Statistics
        Read error                           : 0
        Skipped (treated as error)           : 0
        Edge jitter error (maybe fixed)      : 0
        Atom jitter error (maybe fixed)      : 0
        Drift error (maybe fixed)            : 0
        Dropped bytes error (maybe fixed)    : 0
        Duplicated bytes error (maybe fixed) : 0
        Inconsistency in error sectors       : 0

Track 07
    Filename : /Music/Poppy Ackroyd - Escapement (2012) [FLAC]/07 - Mechanism.flac

    Track gain             : -3.14 dB
    Peak                   : 0.966095
    CRC32 hash (test run)  : EB788088
    CRC32 hash             : EB788088
    CRC32 hash (skip zero) : C4F8800A
    AccurateRip signature  : 1B2B268A
        ->Track not present in AccurateRip database.
    Statistics
        Read error                           : 0
        Skipped (treated as error)           : 0
        Edge jitter error (maybe fixed)      : 0
        Atom jitter error (maybe fixed)      : 0
        Drift error (maybe fixed)            : 0
        Dropped bytes error (maybe fixed)    : 0
        Duplicated bytes error (maybe fixed) : 0
        Inconsistency in error sectors       : 0

No errors occurred

End of status report
Содержание индексной карты (.CUE)
TITLE "Escapement"
PERFORMER "Poppy Ackroyd"
REM DATE 2012
REM DISCID 4A076107
REM REPLAYGAIN_ALBUM_GAIN -2.63 dB
REM REPLAYGAIN_ALBUM_PEAK 0.966156
FILE "01 - Aliquot.wav" WAVE
  TRACK 01 AUDIO
    TITLE "Aliquot"
    PERFORMER "Poppy Ackroyd"
    REM REPLAYGAIN_TRACK_GAIN -2.24 dB
    REM REPLAYGAIN_TRACK_PEAK 0.826385
    INDEX 01 00:00:00
FILE "02 - Rain.wav" WAVE
  TRACK 02 AUDIO
    TITLE "Rain"
    PERFORMER "Poppy Ackroyd"
    REM REPLAYGAIN_TRACK_GAIN -1.08 dB
    REM REPLAYGAIN_TRACK_PEAK 0.966125
    INDEX 01 00:00:00
FILE "03 - Seven.wav" WAVE
  TRACK 03 AUDIO
    TITLE "Seven"
    PERFORMER "Poppy Ackroyd"
    REM REPLAYGAIN_TRACK_GAIN -1.63 dB
    REM REPLAYGAIN_TRACK_PEAK 0.900909
    INDEX 01 00:00:00
FILE "04 - Glass Sea.wav" WAVE
  TRACK 04 AUDIO
    TITLE "Glass Sea"
    PERFORMER "Poppy Ackroyd"
    REM REPLAYGAIN_TRACK_GAIN -3.81 dB
    REM REPLAYGAIN_TRACK_PEAK 0.904205
    INDEX 01 00:00:00
FILE "05 - Lyre.wav" WAVE
  TRACK 05 AUDIO
    TITLE "Lyre"
    PERFORMER "Poppy Ackroyd"
    REM REPLAYGAIN_TRACK_GAIN -1.47 dB
    REM REPLAYGAIN_TRACK_PEAK 0.966156
    INDEX 01 00:00:00
FILE "06 - Grounds.wav" WAVE
  TRACK 06 AUDIO
    TITLE "Grounds"
    PERFORMER "Poppy Ackroyd"
    REM REPLAYGAIN_TRACK_GAIN -3.26 dB
    REM REPLAYGAIN_TRACK_PEAK 0.916229
    INDEX 01 00:00:00
FILE "07 - Mechanism.wav" WAVE
  TRACK 07 AUDIO
    TITLE "Mechanism"
    PERFORMER "Poppy Ackroyd"
    REM REPLAYGAIN_TRACK_GAIN -3.14 dB
    REM REPLAYGAIN_TRACK_PEAK 0.966095
    INDEX 01 00:00:00
Приватный:
Нет (DHT включён)
Размер:
143.19 Мб (150,143,030 байт) » файлов: 10
Участники:
0 раздают, 0 качают (0 участников всего)
Внешние участники:
7 раздают, 2 качают (9 участников всего) [ Обновить ]
Есть вопросы - пишите личное сообщение пользователю M0p94ok.
17:55
10
Нет комментариев. Ваш будет первым!