Вы используете незарегистрированную версию компонента "Вкладки"!

Поиск

2012 Marc Antoine - Guitar Destiny {Frazzy Frog} [CD]

2012 Marc Antoine - Guitar Destiny {Frazzy Frog} [CD]
Доп. инфо:

Страна-производитель диска: USA
Год издания: 2012
Издатель (лейбл): Frazzy frog music, inc
Страна: Russia
Аудиокодек: FLAC (*.flac)
Тип рипа: image+.cue
Битрейт аудио: lossless
Продолжительность: 00:42:49
Источник (релизер): tanush62
Наличие сканов в содержимом раздачи: да
 

Лог создания рипа
Exact Audio Copy V1.0 beta 3 from 29. August 2011
EAC extraction logfile from 1. December 2012, 20:04
Marc Antoine / Guitar Destiny
Used drive  : Optiarc DVD RW AD-5280S   Adapter: 2  ID: 2
Read mode               : Secure
Utilize accurate stream : Yes
Defeat audio cache      : Yes
Make use of C2 pointers : No
Read offset correction                      : 48
Overread into Lead-In and Lead-Out          : No
Fill up missing offset samples with silence : Yes
Delete leading and trailing silent blocks   : No
Null samples used in CRC calculations       : Yes
Used interface                              : Installed external ASPI interface
Used output format              : User Defined Encoder
Selected bitrate                : 768 kBit/s
Quality                         : High
Add ID3 tag                     : No
Command line compressor         : C:\Program Files\Exact Audio Copy\Flac\flac.exe
Additional command line options : -V -8 -T "Date=%year%" -T "Genre=%genre%" %source%
TOC of the extracted CD
     Track |   Start  |  Length  | Start sector | End sector
    ---------------------------------------------------------
        1  |  0:00.00 |  4:24.23 |         0    |    19822
        2  |  4:24.23 |  4:32.00 |     19823    |    40222
        3  |  8:56.23 |  3:52.40 |     40223    |    57662
        4  | 12:48.63 |  4:51.48 |     57663    |    79535
        5  | 17:40.36 |  5:06.36 |     79536    |   102521
        6  | 22:46.72 |  4:11.25 |    102522    |   121371
        7  | 26:58.22 |  3:49.10 |    121372    |   138556
        8  | 30:47.32 |  5:07.51 |    138557    |   161632
        9  | 35:55.08 |  3:28.74 |    161633    |   177306
       10  | 39:24.07 |  4:17.30 |    177307    |   196611
Range status and errors
Selected range
     Filename F:\Sket4er\Marc Antoine - Guitar Destiny 2012 [flac]\Marc Antoine - Guitar Destiny.wav
     Peak level 98.7 %
     Extraction speed 3.5 X
     Range quality 99.9 %
     Test CRC FC7B8145
     Copy CRC FC7B8145
     Copy OK
No errors occurred
AccurateRip summary
Track  1  not present in database
Track  2  not present in database
Track  3  not present in database
Track  4  not present in database
Track  5  not present in database
Track  6  not present in database
Track  7  not present in database
Track  8  not present in database
Track  9  not present in database
Track 10  not present in database
None of the tracks are present in the AccurateRip database
End of status report
==== Log checksum D3DE0319929D10975DD650AA5996A8AA157823947D90EE954FBBC1D475BC1667 ====
Содержание индексной карты (.CUE)
REM GENRE "Smooth Sound"
REM DATE 2012
REM DISCID 880A3D0A
REM COMMENT "ExactAudioCopy v1.0b3"
PERFORMER "Marc Antoine"
TITLE "Guitar Destiny"
FILE "Marc Antoine - Guitar Destiny.flac" WAVE
  TRACK 01 AUDIO
    TITLE "Like It Once Was"
    PERFORMER "Marc Antoine"
    INDEX 01 00:00:00
  TRACK 02 AUDIO
    TITLE "Lutece Tango"
    PERFORMER "Marc Antoine"
    INDEX 00 04:23:48
    INDEX 01 04:24:23
  TRACK 03 AUDIO
    TITLE "Montuno Bay"
    PERFORMER "Marc Antoine"
    INDEX 00 08:55:23
    INDEX 01 08:56:23
  TRACK 04 AUDIO
    TITLE "Alegria"
    PERFORMER "Marc Antoine"
    INDEX 00 12:47:53
    INDEX 01 12:48:63
  TRACK 05 AUDIO
    TITLE "Red Sky"
    PERFORMER "Marc Antoine"
    INDEX 00 17:39:36
    INDEX 01 17:40:36
  TRACK 06 AUDIO
    TITLE "Medianoche"
    PERFORMER "Marc Antoine"
    INDEX 00 22:45:52
    INDEX 01 22:46:72
  TRACK 07 AUDIO
    TITLE "Mi Pueblo"
    PERFORMER "Marc Antoine"
    INDEX 00 26:56:45
    INDEX 01 26:58:22
  TRACK 08 AUDIO
    TITLE "Circus Afternoon"
    PERFORMER "Marc Antoine"
    INDEX 00 30:47:27
    INDEX 01 30:47:32
  TRACK 09 AUDIO
    TITLE "Jazz It Up"
    PERFORMER "Marc Antoine"
    INDEX 00 35:53:40
    INDEX 01 35:55:08
  TRACK 10 AUDIO
    TITLE "Ojos De Caramelo"
    PERFORMER "Marc Antoine"
    INDEX 00 39:22:68
    INDEX 01 39:24:07
Any questions - support@pro-jazz.com. Есть вопросы - support@pro-jazz.com
04:30
229
Нет комментариев. Ваш будет первым!