Поиск

2012 Dan Nimmer Trio - All The Things You Are (2018) {Venus} [DSD64 ISO]

2012 Dan Nimmer Trio - All The Things You Are (2018) {Venus} [DSD64 ISO]
Стили:
Дата записи диска:
15 января - 16 января 2012
Место записи:
Avatar Studios, New York City, NY, USA
Дата издания диска:
19 декабря 2012
Дата переиздания диска:
17 октября 2018
Издатель (лейбл):
Номер по каталогу:
VHGD-322
Носитель:
SACD
Формат:
DSD
Тип рипа:
image
Контейнер:
ISO (*.iso)
Количество каналов:
2.0
Разрядность/ЧД:
64 (2,8 MHz/1 Bit)
Битрейт аудио:
lossless
Время звучания:
00:54:13
Наличие сканов:
только обложка

01. Alone Together《 A. Schwartz 》
02. It’s A Sin To Tell A Lie《 B. Mayhew 》
03. Moon River《 H. Mancini 》
04. You’d Be So Nice To Come Home To《 C. Porter 》
05. Misty《 E. Garner 》
06. Night And Day《 C. Porter 》
07. So In Love《 C. Porter 》
08. Lullaby Of Birdland《 G. Shearing 》
09. Fly Me To The Moon《 B. Howard 》
10. The Shadow Of Your Smile《 J. Mandel 》
11. All The Things You Are《 J. Kern 》

Состав:
  • Dan Nimmer — piano
  • David Wong — bass
  • Pete Van Nostrand — drums
Лог проверки качества
foobar2000 1.6.8 / Dynamic Range Meter 1.1.1
log date: 2021-12-29 16:58:19
--------------------------------------------------------------------------------
Analyzed: DAN NIMMER TRIO / All The Things You Are
--------------------------------------------------------------------------------
DR         Peak         RMS     Duration Track
--------------------------------------------------------------------------------
DR8       -5.49 dB   -15.09 dB      4:52 01-Alone Together
DR8       -4.76 dB   -14.87 dB      4:13 02-It's A Sin To Tell A Lie
DR7       -5.02 dB   -14.28 dB      4:28 03-Moon River
DR7       -5.20 dB   -14.59 dB      3:43 04-You'd Be So Nice To Come Home To
DR7       -6.77 dB   -15.43 dB      5:12 05-Misty
DR8       -4.56 dB   -14.84 dB      6:01 06-Night And Day
DR8       -5.51 dB   -16.10 dB      5:19 07-So In Love
DR8       -5.70 dB   -15.24 dB      5:10 08-Lullaby Of Birdland
DR6       -6.59 dB   -14.42 dB      5:58 09-Fly Me To The Moon
DR7       -6.71 dB   -15.01 dB      5:00 10-The Shadow Of Your Smile
DR7       -6.34 dB   -14.93 dB      4:19 11-All The Things You Are
--------------------------------------------------------------------------------
Number of tracks:  11
Official DR value: DR7
Samplerate:        2822400 Hz / PCM Samplerate: 88200 Hz
Channels:          2
Bits per sample:   1
Bitrate:           5645 kbps
Codec:             DSD64
================================================================================
11:58
451
Нет комментариев. Ваш будет первым!