Поиск

2012 Christian Meyers Quintet - East Autumn {Neuklang NCD4067} [24-44,1]

2012 Christian Meyers Quintet - East Autumn {Neuklang NCD4067} [24-44,1]
Стили:
Дата издания диска:
2 ноября 2012
Издатель (лейбл):
Номер по каталогу:
NCD4067
Носитель:
WEB
Формат:
PCM
Тип рипа:
tracks+.cue
Контейнер:
APE (*.ape)
Количество каналов:
2.0
Разрядность/ЧД:
24/44,1
Битрейт аудио:
lossless
Время звучания:
00:57:39
Наличие сканов:
да
Страна-производитель диска (релиза):
Germany
Релизёр (источник):
M0p94ok
Лог проверки качества
foobar2000 1.3.16 / Dynamic Range Meter 1.1.1
log date: 2019-04-03 22:59:21

--------------------------------------------------------------------------------
Analyzed: Christian Meyers Quintet / East Autumn
--------------------------------------------------------------------------------

DR         Peak         RMS     Duration Track
--------------------------------------------------------------------------------
DR11      -0.13 dB   -12.85 dB      5:38 01-A Glimpse of Past Events
DR11      -0.13 dB   -12.76 dB      5:54 02-Light Flight
DR11      -0.13 dB   -12.93 dB      4:52 03-Jim's Jump
DR9       -0.48 dB   -13.11 dB      6:11 04-Still Around
DR12      -0.13 dB   -13.30 dB      5:36 05-April's Prayer
DR13      -0.14 dB   -15.90 dB      5:21 06-Out of the Darkness
DR11      -0.13 dB   -12.98 dB      6:16 07-East Autumn
DR11      -0.13 dB   -12.05 dB      3:39 08-Kitchen Talk
DR12      -1.80 dB   -17.16 dB      4:11 09-Cat Call
DR11      -0.13 dB   -12.26 dB      3:02 10-Berlin Pancake
DR10      -0.13 dB   -12.33 dB      4:49 11-Cold and Sunny
DR10      -2.37 dB   -15.43 dB      2:10 12-Little M
--------------------------------------------------------------------------------

Number of tracks:  12
Official DR value: DR11

Samplerate:        44100 Hz
Channels:          2
Bits per sample:   24
Bitrate:           1234 kbps
Codec:             FLAC
================================================================================
No seeders - write personal message to M0p94ok. Any questions - support@pro-jazz.com.
Нет сидеров - пишите в личку M0p94ok. Есть вопросы - support@pro-jazz.com
20:29
193
Нет комментариев. Ваш будет первым!