Поиск

2012 Catherine Russell - Strictly Romancin' {World Village} [24-48]

2012 Catherine Russell - Strictly Romancin' {World Village} [24-48]
Издатель (лейбл):

Треклист:
Формат записи/Источник записи: [TR24][OF]
Наличие водяных знаков: Нет
Год издания/переиздания диска: 2012
Продолжительность: 49:10
Наличие сканов в содержимом раздачи: Буклет PDF
Контейнер: FLAC (*.flac)
Тип рипа: tracks
Разрядность: 24/48
Формат: PCM
Количество каналов: 2.0
Источник: hdtracks.com
Треклист:
01. Under The Spell Of The Blues (3:08)
02. I'm In The Mood For Love (3:44)
03. Wake Up And Live (2:27)
04. Ev'ntide (3:45)
05. Romance In The Dark (4:12)
06. I'm Checkin' Out, Goom'bye (2:25)
07. No More (3:12)
08. Satchel Mouth Baby (3:20)
09. Everything's Been Done Before (3:14)
10. Don't Leave Me (4:38)
11. I Haven't Changed A Thing (4:43)
12. Everybody Loves My Baby (3:23)
13. He's All I Need (3:34)
14. Whatcha Gonna Do When There Ain't No Swing? (3:27)
 
Лог проверки качества
foobar2000 1.3.9 / Dynamic Range Meter 1.1.1
log date: 2018-02-02 19:45:56
--------------------------------------------------------------------------------
Analyzed: Catherine Russell / Strictly Romancin'
--------------------------------------------------------------------------------
DR         Peak         RMS     Duration Track
--------------------------------------------------------------------------------
DR9       -0.29 dB   -12.24 dB      3:08 01-Under The Spell Of The Blues
DR12      -0.32 dB   -15.07 dB      3:44 02-I'm In The Mood For Love
DR11      -0.32 dB   -13.23 dB      2:27 03-Wake Up And Live
DR11      -0.25 dB   -14.45 dB      3:45 04-Ev'ntide
DR9       -0.30 dB   -13.12 dB      4:12 05-Romance In The Dark
DR10      -0.24 dB   -13.07 dB      2:25 06-I'm Checkin' Out, Goom'bye
DR9       -0.25 dB   -13.25 dB      3:12 07-No More
DR11      -0.23 dB   -12.94 dB      3:20 08-Satchel Mouth Baby
DR11      -0.32 dB   -13.77 dB      3:14 09-Everything's Been Done Before
DR10      -0.29 dB   -14.11 dB      4:38 10-Don't Leave Me
DR11      -0.31 dB   -13.40 dB      4:43 11-I Haven't Changed A Thing
DR10      -0.22 dB   -11.68 dB      3:23 12-Everybody Loves My Baby
DR10      -0.32 dB   -13.30 dB      3:34 13-He's All I Need
DR10      -0.26 dB   -12.69 dB      3:27 14-Whatcha Gonna Do When There Ain't No Swing?
--------------------------------------------------------------------------------
Number of tracks:  14
Official DR value: DR10
Samplerate:        48000 Hz
Channels:          2
Bits per sample:   24
Bitrate:           1601 kbps
Codec:             FLAC
================================================================================

 

Приватный:
Нет (DHT включён)
Размер:
550.67 Мб (577,415,619 байт) » файлов: 18
Участники:
0 раздают, 0 качают (0 участников всего)
Внешние участники:
2 раздают, 1 качают (3 участников всего) [ Обновить ]
No seeders - write a personal message to user M0p94ok. Нет сидеров - пишите личное сообщение пользователю M0p94ok.
17:12
94
Нет комментариев. Ваш будет первым!