Вы используете незарегистрированную версию компонента "Вкладки"!

Поиск

2012 Alexis Ffrench - Piano Karma {AFM} [WEB]

2012 Alexis Ffrench - Piano Karma {AFM} [WEB]
Носитель:
WEB
Тип рипа:
tracks+.cue
Аудиокодек:
FLAC (*.flac)
Битрейт аудио:
lossless
Время звучания:
00:37:14
Наличие сканов:
web
Релизёр (источник):
M0p94ok
Лог проверки качества
foobar2000 1.4.3 / Dynamic Range Meter 1.1.1
log date: 2020-05-20 19:39:46

--------------------------------------------------------------------------------
Analyzed: Alexis Ffrench / Piano Karma
--------------------------------------------------------------------------------

DR         Peak         RMS     Duration Track
--------------------------------------------------------------------------------
DR11      -0.43 dB   -14.34 dB      2:49 01-Pure
DR9       -2.06 dB   -14.53 dB      2:27 02-Kindred Spirit
DR9       -1.84 dB   -13.00 dB      3:11 03-Hope
DR9       -0.58 dB   -13.31 dB      1:59 04-Subtract
DR11      -0.44 dB   -13.86 dB      2:35 06-You Are
DR10      -0.65 dB   -14.06 dB      1:50 08-Close Reality
DR10      -2.10 dB   -14.30 dB      1:40 09-Redemption
DR10      -0.68 dB   -13.60 dB      2:08 10-Shine
DR9       -1.08 dB   -13.77 dB      2:38 13-I'll Fly Away
DR9       -0.94 dB   -13.74 dB      1:41 14-Simple Gifts
DR11      -0.44 dB   -14.16 dB      3:50 15-My Time
DR9       -1.70 dB   -15.04 dB      1:56 16-Being Again
--------------------------------------------------------------------------------

Number of tracks:  12
Official DR value: DR10

Samplerate:        44100 Hz
Channels:          2
Bits per sample:   16
Bitrate:           503 kbps
Codec:             FLAC
================================================================================

--------------------------------------------------------------------------------
Analyzed: Alexis Ffrench / Piano Karma
--------------------------------------------------------------------------------

DR         Peak         RMS     Duration Track
--------------------------------------------------------------------------------
DR10      -1.32 dB   -13.88 dB      2:34 05-Truth Vibrations
DR9       -1.20 dB   -12.76 dB      1:58 07-Verde
DR12      -1.93 dB   -16.83 dB      1:46 11-Karma
DR10      -0.94 dB   -13.72 dB      2:18 12-Subtract 2
--------------------------------------------------------------------------------

Number of tracks:  4
Official DR value: DR10

Samplerate:        48000 Hz
Channels:          2
Bits per sample:   24
Bitrate:           1258 kbps
Codec:             FLAC
================================================================================
Any questions - support@pro-jazz.com. Есть вопросы - support@pro-jazz.com
19:41
174
Нет комментариев. Ваш будет первым!