Вы используете незарегистрированную версию компонента "Вкладки"!

Поиск

2011 Tom Waits - Bad As Me (2017 Deluxe Edition Remastered) {Anti, Epitaph 87151-2SC2} [24-96]

2011 Tom Waits - Bad As Me (2017 Deluxe Edition Remastered) {Anti, Epitaph 87151-2SC2} [24-96]
Стили:
Дата переиздания диска:
10 ноября 2017
Номер по каталогу:
87151-2SC2
Носитель:
WEB
Формат:
PCM
Тип рипа:
tracks+.cue
Количество каналов:
2.0
Разрядность/ЧД:
24/96
Битрейт аудио:
lossless
Время звучания:
00:53:49
Наличие сканов:
web
Страна-производитель диска (релиза):
USA
Релизёр (источник):
M0p94ok
Лог проверки качества
foobar2000 1.5.5 / Dynamic Range Meter 1.1.1
log date: 2020-10-05 17:23:12

--------------------------------------------------------------------------------
Analyzed: Tom Waits / Bad As Me (Deluxe Edition Remastered)
--------------------------------------------------------------------------------

DR         Peak         RMS     Duration Track
--------------------------------------------------------------------------------
DR7       -1.25 dB   -10.54 dB      2:14 01-Chicago
DR7       -1.25 dB    -9.71 dB      3:24 02-Raised Right Men
DR9       -1.25 dB   -11.28 dB      4:13 03-Talking At The Same Time
DR7       -1.24 dB    -9.81 dB      2:42 04-Get Lost
DR9       -1.25 dB   -12.58 dB      3:42 05-Face To The Highway
DR10      -1.25 dB   -12.80 dB      3:15 06-Pay Me
DR10      -1.25 dB   -12.59 dB      2:49 07-Back In The Crowd
DR6       -1.24 dB    -8.76 dB      3:10 08-Bad As Me
DR9       -1.25 dB   -12.46 dB      3:41 09-Kiss Me
DR8       -1.25 dB   -10.08 dB      4:05 10-Satisfied
DR11      -1.25 dB   -14.92 dB      2:56 11-Last Leaf
DR8       -1.25 dB   -10.11 dB      3:56 12-Hell Broke Luce
DR9       -1.25 dB   -11.98 dB      4:28 13-New Year's Eve
DR9       -1.23 dB   -11.55 dB      2:50 14-She Stole The Blush
DR8       -1.25 dB   -10.67 dB      3:43 15-Tell Me
DR8       -1.25 dB   -10.74 dB      2:48 16-After You Die
--------------------------------------------------------------------------------

Number of tracks:  16
Official DR value: DR8

Samplerate:        96000 Hz
Channels:          2
Bits per sample:   24
Bitrate:           2675 kbps
Codec:             FLAC
================================================================================
Any questions - support@pro-jazz.com. Есть вопросы - support@pro-jazz.com
19:07
217
Нет комментариев. Ваш будет первым!