Вы используете незарегистрированную версию компонента "Вкладки"!

Поиск

2011 Julian & Roman Wasserfuhr - Gravity {ACT Music} [24-88,2]

2011 Julian & Roman Wasserfuhr - Gravity {ACT Music} [24-88,2]
Стили:
Дата записи диска:
4-6 января 2011
Место записи:
Hansa Tonstudios, Berlin, Germany
Издатель (лейбл):
Номер по каталогу:
ACT 9507-2
Носитель:
WEB
Формат:
PCM
Тип рипа:
tracks+.cue
Контейнер:
FLAC (*.flac)
Количество каналов:
2.0
Разрядность/ЧД:
24/88,2
Битрейт аудио:
lossless
Время звучания:
00:54:00
Наличие сканов:
web
Страна-производитель диска (релиза):
Germany
Релизёр (источник):
M0p94ok
Лог проверки качества
foobar2000 1.5.5 / Dynamic Range Meter 1.1.1
log date: 2020-09-24 18:33:12

--------------------------------------------------------------------------------
Analyzed: Julian, Roman Wasserfuhr, Lars Danielsson, Wolfgang Haffner / Gravity
--------------------------------------------------------------------------------

DR         Peak         RMS     Duration Track
--------------------------------------------------------------------------------
DR8       -0.10 dB   -11.87 dB      4:52 01-Twinkle Eyes
DR10      -0.10 dB   -12.83 dB      5:37 02-Englishman in New York
DR11      -0.10 dB   -13.65 dB      1:30 03-Interlude
DR10      -0.11 dB   -13.71 dB      5:22 04-L.O.V.E.
DR9       -0.10 dB   -10.97 dB      4:00 05-Ramos Us
DR10      -0.11 dB   -13.10 dB      6:18 06-Fool's Paradise
DR12      -0.10 dB   -13.97 dB      4:19 07-Branca
DR10      -0.10 dB   -13.04 dB      2:50 08-Gravity
DR10      -0.11 dB   -12.87 dB      3:34 09-Midnight Walk
DR10      -0.10 dB   -12.65 dB      4:11 10-If The Rain Comes
DR9       -0.10 dB   -12.12 dB      4:50 11-Blue Desert
DR9       -0.11 dB   -13.15 dB      3:55 12-Some Other Time
DR11      -0.10 dB   -14.73 dB      2:48 13-Theo
--------------------------------------------------------------------------------

Number of tracks:  13
Official DR value: DR10

Samplerate:        88200 Hz
Channels:          2
Bits per sample:   24
Bitrate:           2536 kbps
Codec:             FLAC
================================================================================
Any questions - support@pro-jazz.com. Есть вопросы - support@pro-jazz.com
18:51
672
Нет комментариев. Ваш будет первым!