Поиск

2011 Elvin Jones - Dear John C. {Impulse!/Analogue Productions CIPJ 88 SA}

2011 Elvin Jones - Dear John C. {Impulse!/Analogue Productions CIPJ 88 SA}
Стили:
Издатель (лейбл):
Треклист:

Страна-производитель диска: USA
Год издания диска: 2011
Номер по каталогу: CIPJ 88 SA
Страна: US Pontiac, MI
Аудиокодек: FLAC (*.flac)
Тип рипа: tracks+.cue
Битрейт аудио: lossless
Продолжительность: 00:39:03
Источник (релизер): Bezz
Наличие сканов в содержимом раздачи: да

Треклист:
01. Dear John C [03:53]
02. Smoke Rings [03:39]
03. Love Bird [03:47]
04. Feeling Good [04:04]
05. Anthropology [04:09]
06. This Love Of Mine [04:18]
07. Fantazm [03:56]
08. Ballad [05:17]
09. Everything Happens To Me [05:56]

 
Лог создания рипа
Exact Audio Copy V1.0 beta 1 from 15. November 2010
EAC extraction logfile from 6. October 2011, 18:13
Elvin Jones / Dear John C.
Used drive  : MATSHITAUJ-842D   Adapter: 0  ID: 0
Read mode               : Secure
Utilize accurate stream : Yes
Defeat audio cache      : Yes
Make use of C2 pointers : No
Read offset correction                      : 102
Overread into Lead-In and Lead-Out          : No
Fill up missing offset samples with silence : Yes
Delete leading and trailing silent blocks   : No
Null samples used in CRC calculations       : Yes
Used interface                              : Native Win32 interface for Win NT & 2000
Gap handling                                : Appended to previous track
Used output format              : User Defined Encoder
Selected bitrate                : 128 kBit/s
Quality                         : High
Add ID3 tag                     : No
Command line compressor         : C:\Program Files\FLAC\flac.exe
Additional command line options : -8 -V -T "ARTIST=%a" -T "TITLE=%t" -T "ALBUM=%g" -T "DATE=%y" -T "TRACKNUMBER=%n" -T "TOTALTRACKS=%x" -T "GENRE=%m" -T "ALBUM ARTIST=%v" -T "ALBUMARTIST=%v" -T "COMMENT=L2Bits, EAC V1.0 beta 1, Secure Mode, Test & Copy, Acc
TOC of the extracted CD
     Track |   Start  |  Length  | Start sector | End sector
    ---------------------------------------------------------
        1  |  0:00.00 |  3:54.58 |         0    |    17607
        2  |  3:54.58 |  3:41.04 |     17608    |    34186
        3  |  7:35.62 |  3:49.13 |     34187    |    51374
        4  | 11:25.00 |  4:06.41 |     51375    |    69865
        5  | 15:31.41 |  4:11.10 |     69866    |    88700
        6  | 19:42.51 |  4:20.64 |     88701    |   108264
        7  | 24:03.40 |  3:56.67 |    108265    |   126031
        8  | 28:00.32 |  5:18.45 |    126032    |   149926
        9  | 33:19.02 |  5:56.02 |    149927    |   176628
Track  1
     Filename D:\Bezz Rip\01 - Dear John C. - Dear John C.wav
     Pre-gap length  0:00:02.00
     Peak level 88.6 %
     Extraction speed 1.2 X
     Track quality 99.9 %
     Test CRC DA05A4FA
     Copy CRC DA05A4FA
     Track not present in AccurateRip database
     Copy OK
Track  2
     Filename D:\Bezz Rip\02 - Dear John C. - Smoke Rings.wav
     Pre-gap length  0:00:01.58
     Peak level 82.2 %
     Extraction speed 1.3 X
     Track quality 100.0 %
     Test CRC 6599E03A
     Copy CRC 6599E03A
     Track not present in AccurateRip database
     Copy OK
Track  3
     Filename D:\Bezz Rip\03 - Dear John C. - Love Bird.wav
     Pre-gap length  0:00:01.47
     Peak level 81.0 %
     Extraction speed 1.4 X
     Track quality 100.0 %
     Test CRC AA390878
     Copy CRC AA390878
     Track not present in AccurateRip database
     Copy OK
Track  4
     Filename D:\Bezz Rip\04 - Dear John C. - Feeling Good.wav
     Pre-gap length  0:00:01.30
     Peak level 61.5 %
     Extraction speed 1.6 X
     Track quality 100.0 %
     Test CRC 357764B1
     Copy CRC 357764B1
     Track not present in AccurateRip database
     Copy OK
Track  5
     Filename D:\Bezz Rip\05 - Dear John C. - Anthropology.wav
     Pre-gap length  0:00:01.54
     Peak level 91.4 %
     Extraction speed 1.7 X
     Track quality 100.0 %
     Test CRC F86C7C71
     Copy CRC F86C7C71
     Track not present in AccurateRip database
     Copy OK
Track  6
     Filename D:\Bezz Rip\06 - Dear John C. - This Love Of Mine.wav
     Pre-gap length  0:00:01.54
     Peak level 100.0 %
     Extraction speed 1.7 X
     Track quality 100.0 %
     Test CRC 95451CDD
     Copy CRC 95451CDD
     Track not present in AccurateRip database
     Copy OK
Track  7
     Filename D:\Bezz Rip\07 - Dear John C. - Fantazm.wav
     Pre-gap length  0:00:01.74
     Peak level 84.7 %
     Extraction speed 1.7 X
     Track quality 100.0 %
     Test CRC CECB25F5
     Copy CRC CECB25F5
     Track not present in AccurateRip database
     Copy OK
Track  8
     Filename D:\Bezz Rip\08 - Dear John C. - Ballad.wav
     Pre-gap length  0:00:00.38
     Peak level 60.2 %
     Extraction speed 1.8 X
     Track quality 100.0 %
     Test CRC 1FB8C009
     Copy CRC 1FB8C009
     Track not present in AccurateRip database
     Copy OK
Track  9
     Filename D:\Bezz Rip\09 - Dear John C. - Everything Happens To Me.wav
     Pre-gap length  0:00:01.18
     Peak level 100.0 %
     Extraction speed 1.9 X
     Track quality 100.0 %
     Test CRC 130B6A01
     Copy CRC 130B6A01
     Track not present in AccurateRip database
     Copy OK
None of the tracks are present in the AccurateRip database
No errors occurred
End of status report
==== Log checksum 92EE6F99278CDB79283518CB55B9A5703397AC840A0E1428DAA5E1B8D60ACBFD ====
 
Содержание индексной карты (.CUE)
REM GENRE Jazz
REM DATE 2011
REM DISCID 71093309
REM COMMENT "ExactAudioCopy v1.0b1"
PERFORMER "Elvin Jones"
TITLE "Dear John C."
FILE "01 - Dear John C. - Dear John C.wav" WAVE
  TRACK 01 AUDIO
    TITLE "Dear John C"
    PERFORMER "Elvin Jones"
    FLAGS DCP
    INDEX 01 00:00:00
  TRACK 02 AUDIO
    TITLE "Smoke Rings"
    PERFORMER "Elvin Jones"
    FLAGS DCP
    INDEX 00 03:53:00
FILE "02 - Dear John C. - Smoke Rings.wav" WAVE
    INDEX 01 00:00:00
  TRACK 03 AUDIO
    TITLE "Love Bird"
    PERFORMER "Elvin Jones"
    FLAGS DCP
    INDEX 00 03:39:32
FILE "03 - Dear John C. - Love Bird.wav" WAVE
    INDEX 01 00:00:00
  TRACK 04 AUDIO
    TITLE "Feeling Good"
    PERFORMER "Elvin Jones"
    FLAGS DCP
    INDEX 00 03:47:58
FILE "04 - Dear John C. - Feeling Good.wav" WAVE
    INDEX 01 00:00:00
  TRACK 05 AUDIO
    TITLE "Anthropology"
    PERFORMER "Elvin Jones"
    FLAGS DCP
    INDEX 00 04:04:62
FILE "05 - Dear John C. - Anthropology.wav" WAVE
    INDEX 01 00:00:00
  TRACK 06 AUDIO
    TITLE "This Love Of Mine"
    PERFORMER "Elvin Jones"
    FLAGS DCP
    INDEX 00 04:09:31
FILE "06 - Dear John C. - This Love Of Mine.wav" WAVE
    INDEX 01 00:00:00
  TRACK 07 AUDIO
    TITLE "Fantazm"
    PERFORMER "Elvin Jones"
    FLAGS DCP
    INDEX 00 04:18:65
FILE "07 - Dear John C. - Fantazm.wav" WAVE
    INDEX 01 00:00:00
  TRACK 08 AUDIO
    TITLE "Ballad"
    PERFORMER "Elvin Jones"
    FLAGS DCP
    INDEX 00 03:56:29
FILE "08 - Dear John C. - Ballad.wav" WAVE
    INDEX 01 00:00:00
  TRACK 09 AUDIO
    TITLE "Everything Happens To Me"
    PERFORMER "Elvin Jones"
    FLAGS DCP
    INDEX 00 05:17:27
FILE "09 - Dear John C. - Everything Happens To Me.wav" WAVE
    INDEX 01 00:00:00
Приватный:
Нет (DHT включён)
Размер:
238.75 Мб (250,348,362 байт) » файлов: 19
Участники:
0 раздают, 0 качают (0 участников всего)
Внешние участники:
1 раздают, 0 качают (1 участников всего) [ Обновить ]
Нет сидеров - пишите личное сообщение M0p94ok. Не нравятся торренты? Участники группы Pro-jazz Club могут заказать прямую ссылку на скачивание из облака.
No seeders - write a personal message to M0p94ok. Don't like torrents? Members of Pro-jazz Club group can order a direct download link from the cloud.
12:46
132
Нет комментариев. Ваш будет первым!