Поиск

2011 David Murray Cuban Ensemble Plays Nat King Cole en Espanol (feat. Daniel Melingo The Sinfonieta of Sines) {3D Family} [CD]

2011 David Murray Cuban Ensemble Plays Nat King Cole en Espanol (feat. Daniel Melingo The Sinfonieta of Sines) {3D Family} [CD]
Доп. инфо:

Страна-производитель диска: Made in the EU
Год издания диска: 2011
Издатель (лейбл): 3D Family
Номер по каталогу: 0602527635934
Аудиокодек: WavPack (*.wv)
Тип рипа: image+.cue
Битрейт аудио: lossless
Продолжительность: 01:06:55
Источник (релизер): AvaxHome / спасибо gribovar / thanks to bINkI
Наличие сканов в содержимом раздачи: да

Лог создания рипа
Exact Audio Copy V0.99 prebeta 5 from 4. May 2009
EAC extraction logfile from 11. August 2011, 16:07
David Murray Cuban Ensemble / Plays Nat King Cole en Espaсol
Used drive  : HL-DT-STDVD-RAM GH22NP20   Adapter: 1  ID: 1
Read mode               : Secure
Utilize accurate stream : Yes
Defeat audio cache      : Yes
Make use of C2 pointers : No
Read offset correction                      : 102
Overread into Lead-In and Lead-Out          : No
Fill up missing offset samples with silence : Yes
Delete leading and trailing silent blocks   : No
Null samples used in CRC calculations       : Yes
Used interface                              : Native Win32 interface for Win NT & 2000
Used output format : Internal WAV Routines
Sample format      : 44.100 Hz; 16 Bit; Stereo
TOC of the extracted CD
     Track |   Start  |  Length  | Start sector | End sector
    ---------------------------------------------------------
        1  |  0:00.00 |  9:23.36 |         0    |    42260
        2  |  9:23.36 |  6:07.64 |     42261    |    69849
        3  | 15:31.25 |  8:28.35 |     69850    |   107984
        4  | 23:59.60 |  7:11.48 |    107985    |   140357
        5  | 31:11.33 |  8:05.33 |    140358    |   176765
        6  | 39:16.66 |  6:42.41 |    176766    |   206956
        7  | 45:59.32 |  6:43.45 |    206957    |   237226
        8  | 52:43.02 |  6:23.65 |    237227    |   266016
        9  | 59:06.67 |  7:50.37 |    266017    |   301303
Range status and errors
Selected range
     Filename C:\Documents and Settings\Proprietario\Desktop\David Murray Cuban Ensemble - Plays Nat King Cole en Espaсol.wav
     Peak level 100.0 %
     Range quality 100.0 %
     Test CRC C2E144EE
     Copy CRC C2E144EE
     Copy OK
No errors occurred
AccurateRip summary
Track  1  not present in database
Track  2  not present in database
Track  3  not present in database
Track  4  not present in database
Track  5  not present in database
Track  6  not present in database
Track  7  not present in database
Track  8  not present in database
Track  9  not present in database
None of the tracks are present in the AccurateRip database
End of status report
Содержание индексной карты (.CUE)
REM GENRE Jazz
REM DATE 2011
REM DISCID 830FB109
REM COMMENT "ExactAudioCopy v0.99pb5"
CATALOG 0602527635934
PERFORMER "David Murray Cuban Ensemble"
TITLE "Plays Nat King Cole en Espanol"
FILE "David Murray Cuban Ensemble - Plays Nat King Cole en Espanol.wv" WAVE
  TRACK 01 AUDIO
    TITLE "Elbodeguero"
    PERFORMER "David Murray Cuban Ensemble"
    ISRC ES5701001104
    INDEX 01 00:00:00
  TRACK 02 AUDIO
    TITLE "Quizas"
    PERFORMER "David Murray Cuban Ensemble"
    ISRC ES5701001115
    INDEX 01 09:23:36
  TRACK 03 AUDIO
    TITLE "Trespalabras"
    PERFORMER "David Murray Cuban Ensemble"
    ISRC ES5701001105
    INDEX 01 15:31:25
  TRACK 04 AUDIO
    TITLE "Pielcanela"
    PERFORMER "David Murray Cuban Ensemble"
    ISRC ES5701001118
    INDEX 01 23:59:60
  TRACK 05 AUDIO
    TITLE "Nomeplatiques"
    PERFORMER "David Murray Cuban Ensemble"
    ISRC ES5701001119
    INDEX 01 31:11:33
  TRACK 06 AUDIO
    TITLE "Blacknat"
    PERFORMER "David Murray Cuban Ensemble"
    ISRC ES5701001116
    INDEX 01 39:16:66
  TRACK 07 AUDIO
    TITLE "Cachito"
    PERFORMER "David Murray Cuban Ensemble"
    ISRC ES5701001117
    INDEX 01 45:59:32
  TRACK 08 AUDIO
    TITLE "Amedia"
    PERFORMER "David Murray Cuban Ensemble"
    ISRC ES5701001120
    INDEX 01 52:43:02
  TRACK 09 AUDIO
    TITLE "Aquisehabla"
    PERFORMER "David Murray Cuban Ensemble"
    ISRC ES5701001121
    INDEX 01 59:06:67
No seeders - write personal message to M0p94ok. Any questions - support@pro-jazz.com.
Нет сидеров - пишите в личку M0p94ok. Есть вопросы - support@pro-jazz.com
00:29
159
Нет комментариев. Ваш будет первым!