Поиск

2011 Cyrus Chestnut Trio - Moonlight Sonata (2016) {Venus} [DSD64 ISO]

2011 Cyrus Chestnut Trio - Moonlight Sonata (2016) {Venus} [DSD64 ISO]
Дата записи диска:
30 марта - 31 марта 2011
Место записи:
Avatar Studio, New York City, NY, USA
Издатель (лейбл):
Номер по каталогу:
VHGD-107
Носитель:
SACD
Формат:
DSD
Тип рипа:
image
Контейнер:
ISO (*.iso)
Количество каналов:
2.0
Разрядность/ЧД:
64 (2,8 MHz/1 Bit)
Битрейт аудио:
lossless
Время звучания:
00:58:11
Наличие сканов:
да

Треклист:

01. Solfeggietto    5:06
02. Swan Lake    5:48
03. Prelude In E Minor    7:21
04. Siciliano    5:26
05. Moonlight Sonata    4:50
06. Love's Dream    5:34
07. Romance-from Masquerade    6:44
08. Kinderszenen    7:13
09. Hungarian Dance No5    5:32
10. Moonlight Sonata - Reprise    4:30

Состав:
  •     Bass – Dezron Douglas
  •     Drums – Neal Smith (3)
  •     Engineer – Katherine Miller
  •     Mastered By – Tetsuo Hara
  •     Mixed By – Tetsuo Hara
  •     Piano – Cyrus Chestnut
  •     Producer – Tetsuo Hara, Todd Barkan
Лог проверки качества
foobar2000 1.6.4 / Dynamic Range Meter 1.1.1
log date: 2021-07-12 11:00:40
--------------------------------------------------------------------------------
Analyzed: CYRUS CHESTNUT TRIO / Moonlight Sonata
--------------------------------------------------------------------------------
DR         Peak         RMS     Duration Track
--------------------------------------------------------------------------------
DR8       -4.46 dB   -14.23 dB      5:07 01-Solfeggietto
DR8       -4.24 dB   -14.00 dB      5:48 02-Swan Lake
DR9       -4.18 dB   -14.38 dB      7:21 03-Prelude In E Minor
DR8       -4.21 dB   -14.22 dB      5:27 04-Siciliano
DR8       -4.22 dB   -14.06 dB      4:51 05-Moonlight Sonata
DR10      -4.14 dB   -16.24 dB      5:35 06-Love's Dream
DR8       -4.14 dB   -14.08 dB      6:45 07-Romance - from Masquerade
DR7       -4.37 dB   -13.37 dB      7:13 08-Kinderszenen
DR8       -4.15 dB   -14.01 dB      5:33 09-Hungarian Dance No5
DR8       -5.38 dB   -16.36 dB      4:31 10-Moonlight Sonata - Reprise
--------------------------------------------------------------------------------
Number of tracks:  10
Official DR value: DR8
Samplerate:        2822400 Hz / PCM Samplerate: 88200 Hz
Channels:          2
Bits per sample:   1
Bitrate:           5645 kbps
Codec:             DSD64
================================================================================
По всем вопросам пишите личное сообщение пользователю M0p94ok.
13:57
249
Нет комментариев. Ваш будет первым!