Вы используете незарегистрированную версию компонента "Вкладки"!

Поиск

2011 Claire Martin & Richard Rodney Bennett - Witchcraft {Linn AKD 359} [DSD64]

2011 Claire Martin & Richard Rodney Bennett - Witchcraft {Linn AKD 359} [DSD64]
Дата записи диска:
10 декабря -12 декабря 2009
Место записи:
British Grove Studios, London, UK
Дата издания диска:
21 марта 2011
Издатель (лейбл):
Битрейт аудио:
lossless
Доп. инфо:

Формат записи/Источник записи: [SACD-R][OF]
Наличие водяных знаков: Нет
Год издания/переиздания диска: 2011
Продолжительность: 00:42:51
Наличие сканов в содержимом раздачи: Да (сканы)
Контейнер: ISO (*.iso)
Тип рипа: image
Разрядность: 64(2,8 MHz/1 Bit)
Формат: DSD
Количество каналов: 5.1; 2.0
Доп. информация: 
Linn Records AKD 359 (2011)
SACD rip via PS3 to iso (2.41GB)
Источник (релизер): ManWhoCan (PS³SACD)

Лог проверки качества
foobar2000 1.4.2 / Dynamic Range Meter 1.1.1
log date: 2019-02-14 20:28:52
--------------------------------------------------------------------------------
Analyzed: Claire Martin & Richard Rodney Bennett / Witchcraft
--------------------------------------------------------------------------------
DR Peak RMS Duration Track
--------------------------------------------------------------------------------
DR12 -8.45 dB -29.71 dB 4:01 01-I'm Gonna Laugh You Right Out of My Life
DR13 -6.20 dB -26.29 dB 2:54 02-The Best Is Yet To
DR12 -6.21 dB -26.52 dB 1:57 03-The Rules Of The Road
DR12 -7.08 dB -26.97 dB 3:16 04-On Second Thought
DR13 -6.33 dB -26.00 dB 2:43 05-Ev'rybody Today Is Turning
DR13 -8.45 dB -30.77 dB 2:49 06-Sometime When You're Lonely
DR11 -6.92 dB -27.01 dB 3:48 07-Let Me Down Easy
DR13 -6.21 dB -25.90 dB 3:28 08-Nobody Does It Like Me
DR12 -6.21 dB -25.59 dB 4:18 09-That's My Style
DR13 -6.18 dB -25.56 dB 2:47 10-When In Rome (I Do As The Romans)
DR12 -6.21 dB -25.69 dB 2:21 11-Witchcraft
DR13 -6.50 dB -29.35 dB 2:50 12-With Every Breath I Take
DR13 -6.80 dB -26.70 dB 2:23 13-On The Other Side Of The Tracks
DR12 -6.22 dB -26.68 dB 3:19 14-Would You Believe
--------------------------------------------------------------------------------
Number of tracks: 14
Official DR value: DR12
Samplerate: 2822400 Hz / PCM Samplerate: 88200 Hz
Channels: 6
Bits per sample: 1
Bitrate: 16934 kbps
Codec: DST64
================================================================================
--------------------------------------------------------------------------------
Analyzed: Claire Martin & Richard Rodney Bennett / Witchcraft
--------------------------------------------------------------------------------
DR Peak RMS Duration Track
--------------------------------------------------------------------------------
DR13 -8.44 dB -25.09 dB 4:01 01-I'm Gonna Laugh You Right Out of My Life
DR13 -6.21 dB -21.64 dB 2:54 02-The Best Is Yet To
DR13 -6.21 dB -21.89 dB 1:57 03-The Rules Of The Road
DR12 -7.07 dB -22.37 dB 3:16 04-On Second Thought
DR13 -6.34 dB -21.37 dB 2:43 05-Ev'rybody Today Is Turning
DR13 -8.45 dB -26.16 dB 2:49 06-Sometime When You're Lonely
DR12 -6.93 dB -22.41 dB 3:48 07-Let Me Down Easy
DR12 -6.21 dB -21.28 dB 3:28 08-Nobody Does It Like Me
DR12 -6.21 dB -20.96 dB 4:18 09-That's My Style
DR12 -6.17 dB -20.92 dB 2:47 10-When In Rome (I Do As The Romans)
DR12 -6.21 dB -21.06 dB 2:21 11-Witchcraft
DR13 -6.49 dB -24.70 dB 2:50 12-With Every Breath I Take
DR13 -6.80 dB -22.07 dB 2:23 13-On The Other Side Of The Tracks
DR11 -6.22 dB -22.03 dB 3:19 14-Would You Believe
--------------------------------------------------------------------------------
Number of tracks: 14
Official DR value: DR12
Samplerate: 2822400 Hz / PCM Samplerate: 88200 Hz
Channels: 2
Bits per sample: 1
Bitrate: 5645 kbps
Codec: DST64
================================================================================
Any questions - support@pro-jazz.com. Есть вопросы - support@pro-jazz.com
20:30
450
Нет комментариев. Ваш будет первым!