Поиск

2011 Beegie Adair - Into Somethin' {Green Hill GHD5794} [CD]

2011 Beegie Adair - Into Somethin' {Green Hill GHD5794} [CD]
Издатель (лейбл):
Треклист:

01. In Walked Bud (4:43)
02. All in Love Is Fair (4:45)
03. Lovesick Blues (3:28)
04. Try Again (4:44)
05. I Can't Make You Love Me (4:11)
06. Along Came Betty (4:01)
07. Here's That Rainy Day (4:55)
08. No Way Out (4:52)
09. Stablemates (5:08)
10. Miss Ferguson, I Presume (4:08)
11. They Can't Take That Away from Me (4:29)

Состав:
  • Beegie Adair    Composer, Liner Notes, Piano, Producer
  • Roy Agee    Trombone, Vocals
  • Gregory Byerline    Executive Producer, Graphic Design, Photography, Producer
  • Jim Ferguson    Vocals
  • Jeff Hall    Vocals
  • Brando Marius    Pro-Tools
  • Rod McGaha    Trumpet
Доп. инфо:

Носитель: CD
Страна-производитель диска (релиза): США
Год издания: 2011
Издатель (лейбл): Green Hill Productions
Номер по каталогу: GHD5794
Аудиокодек: FLAC (*.flac)
Тип рипа: tracks+.cue
Битрейт аудио: lossless
Продолжительность: 00:49:24
Источник: catfish27
Наличие сканов в содержимом раздачи: нет

Лог создания рипа
X Lossless Decoder version 20181019 (151.1)

XLD extraction logfile from 2019-02-14 11:22:41 -0800

Beegie Adair / Into Somethin'

Used drive : PIONEER BD-RW   BDR-XD05 (revision 3.10)
Media type : Pressed CD

Ripper mode             : XLD Secure Ripper
Disable audio cache     : OK for the drive with a cache less than 1375KiB
Make use of C2 pointers : NO
Read offset correction  : 667
Max retry count         : 100
Gap status              : Analyzed, Appended (except HTOA)

TOC of the extracted CD
     Track |   Start  |  Length  | Start sector | End sector
    ---------------------------------------------------------
        1  | 00:00:00 | 04:42:65 |         0    |    21214
        2  | 04:42:65 | 04:44:51 |     21215    |    42565
        3  | 09:27:41 | 03:28:14 |     42566    |    58179
        4  | 12:55:55 | 04:43:50 |     58180    |    79454
        5  | 17:39:30 | 04:11:15 |     79455    |    98294
        6  | 21:50:45 | 04:00:66 |     98295    |   116360
        7  | 25:51:36 | 04:55:00 |    116361    |   138485
        8  | 30:46:36 | 04:52:13 |    138486    |   160398
        9  | 35:38:49 | 05:08:20 |    160399    |   183518
       10  | 40:46:69 | 04:08:08 |    183519    |   202126
       11  | 44:55:02 | 04:28:40 |    202127    |   222266

AccurateRip Summary (DiscID: 00142f76-00af325b-9c0b930b)
    Track 01 : OK (v2, confidence 3/3)
    Track 02 : OK (v2, confidence 3/3)
    Track 03 : OK (v2, confidence 3/3)
    Track 04 : OK (v2, confidence 3/3)
    Track 05 : OK (v2, confidence 3/3)
    Track 06 : OK (v2, confidence 3/3)
    Track 07 : OK (v2, confidence 3/3)
    Track 08 : OK (v2, confidence 3/3)
    Track 09 : OK (v2, confidence 3/3)
    Track 10 : OK (v2, confidence 3/3)
    Track 11 : OK (v2, confidence 3/3)
        ->All tracks accurately ripped.

All Tracks
    Album gain               : -3.05 dB
    Peak                     : 0.988525
    Statistics
        Read error                           : 0
        Jitter error (maybe fixed)           : 0
        Retry sector count                   : 0
        Damaged sector count                 : 0

Track 01
    Filename : /Volumes/Hollywood and Vine/Rips/Beegie Adair - Into Somethin' (2010) [FLAC]/01 In Walked Bud.flac
    Pre-gap length : 00:02:00

    Track gain               : -5.64 dB
    Peak                     : 0.988525
    CRC32 hash (test run)    : E7638C5B
    CRC32 hash               : E7638C5B
    CRC32 hash (skip zero)   : 3B923CFA
    AccurateRip v1 signature : 4A4B34B7
    AccurateRip v2 signature : 7514AF72
        ->Accurately ripped (v2, confidence 3/3)
    Statistics
        Read error                           : 0
        Jitter error (maybe fixed)           : 0
        Retry sector count                   : 0
        Damaged sector count                 : 0

Track 02
    Filename : /Volumes/Hollywood and Vine/Rips/Beegie Adair - Into Somethin' (2010) [FLAC]/02 All in Love Is Fair.flac
    Pre-gap length : 00:01:34

    Track gain               : -2.24 dB
    Peak                     : 0.949066
    CRC32 hash (test run)    : EF82FB7B
    CRC32 hash               : EF82FB7B
    CRC32 hash (skip zero)   : 6D249047
    AccurateRip v1 signature : 7E46EA90
    AccurateRip v2 signature : D6FA5918
        ->Accurately ripped (v2, confidence 3/3)
    Statistics
        Read error                           : 0
        Jitter error (maybe fixed)           : 0
        Retry sector count                   : 0
        Damaged sector count                 : 0

Track 03
    Filename : /Volumes/Hollywood and Vine/Rips/Beegie Adair - Into Somethin' (2010) [FLAC]/03 Lovesick Blues.flac

    Track gain               : -5.16 dB
    Peak                     : 0.988525
    CRC32 hash (test run)    : 0B1C4B08
    CRC32 hash               : 0B1C4B08
    CRC32 hash (skip zero)   : 506D137F
    AccurateRip v1 signature : 7E3ABE9D
    AccurateRip v2 signature : 5FD7195D
        ->Accurately ripped (v2, confidence 3/3)
    Statistics
        Read error                           : 0
        Jitter error (maybe fixed)           : 0
        Retry sector count                   : 0
        Damaged sector count                 : 0

Track 04
    Filename : /Volumes/Hollywood and Vine/Rips/Beegie Adair - Into Somethin' (2010) [FLAC]/04 Try Again.flac
    Pre-gap length : 00:02:23

    Track gain               : -3.05 dB
    Peak                     : 0.988525
    CRC32 hash (test run)    : 34EE80B6
    CRC32 hash               : 34EE80B6
    CRC32 hash (skip zero)   : B56355D5
    AccurateRip v1 signature : 021A34C2
    AccurateRip v2 signature : 32DFC6EB
        ->Accurately ripped (v2, confidence 3/3)
    Statistics
        Read error                           : 0
        Jitter error (maybe fixed)           : 0
        Retry sector count                   : 0
        Damaged sector count                 : 0

Track 05
    Filename : /Volumes/Hollywood and Vine/Rips/Beegie Adair - Into Somethin' (2010) [FLAC]/05 I Can't Make You Love Me.flac
    Pre-gap length : 00:01:74

    Track gain               : -1.90 dB
    Peak                     : 0.945251
    CRC32 hash (test run)    : 0290E99E
    CRC32 hash               : 0290E99E
    CRC32 hash (skip zero)   : E19EA294
    AccurateRip v1 signature : 64ADC828
    AccurateRip v2 signature : 5BB0F163
        ->Accurately ripped (v2, confidence 3/3)
    Statistics
        Read error                           : 0
        Jitter error (maybe fixed)           : 0
        Retry sector count                   : 0
        Damaged sector count                 : 0

Track 06
    Filename : /Volumes/Hollywood and Vine/Rips/Beegie Adair - Into Somethin' (2010) [FLAC]/06 Along Came Betty.flac
    Pre-gap length : 00:02:04

    Track gain               : -2.39 dB
    Peak                     : 0.946960
    CRC32 hash (test run)    : B45EAD92
    CRC32 hash               : B45EAD92
    CRC32 hash (skip zero)   : 3EE1638D
    AccurateRip v1 signature : 5FA5B4DD
    AccurateRip v2 signature : 9A1D0D01
        ->Accurately ripped (v2, confidence 3/3)
    Statistics
        Read error                           : 0
        Jitter error (maybe fixed)           : 0
        Retry sector count                   : 0
        Damaged sector count                 : 0

Track 07
    Filename : /Volumes/Hollywood and Vine/Rips/Beegie Adair - Into Somethin' (2010) [FLAC]/07 Here's That Rainy Day.flac
    Pre-gap length : 00:02:22

    Track gain               : -2.55 dB
    Peak                     : 0.952332
    CRC32 hash (test run)    : 6A36C077
    CRC32 hash               : 6A36C077
    CRC32 hash (skip zero)   : E4FFC24C
    AccurateRip v1 signature : 4C117168
    AccurateRip v2 signature : 18DD8389
        ->Accurately ripped (v2, confidence 3/3)
    Statistics
        Read error                           : 0
        Jitter error (maybe fixed)           : 0
        Retry sector count                   : 0
        Damaged sector count                 : 0

Track 08
    Filename : /Volumes/Hollywood and Vine/Rips/Beegie Adair - Into Somethin' (2010) [FLAC]/08 No Way Out.flac
    Pre-gap length : 00:01:63

    Track gain               : -1.51 dB
    Peak                     : 0.875519
    CRC32 hash (test run)    : 1646DB70
    CRC32 hash               : 1646DB70
    CRC32 hash (skip zero)   : D05FEDEB
    AccurateRip v1 signature : 39D43C4B
    AccurateRip v2 signature : 94987554
        ->Accurately ripped (v2, confidence 3/3)
    Statistics
        Read error                           : 0
        Jitter error (maybe fixed)           : 0
        Retry sector count                   : 0
        Damaged sector count                 : 0

Track 09
    Filename : /Volumes/Hollywood and Vine/Rips/Beegie Adair - Into Somethin' (2010) [FLAC]/09 Stablemates.flac
    Pre-gap length : 00:01:65

    Track gain               : -1.22 dB
    Peak                     : 0.802551
    CRC32 hash (test run)    : 7E5094FE
    CRC32 hash               : 7E5094FE
    CRC32 hash (skip zero)   : 2A6A7BED
    AccurateRip v1 signature : 569511B3
    AccurateRip v2 signature : 679B15DC
        ->Accurately ripped (v2, confidence 3/3)
    Statistics
        Read error                           : 0
        Jitter error (maybe fixed)           : 0
        Retry sector count                   : 0
        Damaged sector count                 : 0

Track 10
    Filename : /Volumes/Hollywood and Vine/Rips/Beegie Adair - Into Somethin' (2010) [FLAC]/10 Miss Ferguson, I Presume.flac
    Pre-gap length : 00:02:17

    Track gain               : 0.10 dB
    Peak                     : 0.814728
    CRC32 hash (test run)    : 27931650
    CRC32 hash               : 27931650
    CRC32 hash (skip zero)   : DAA0E105
    AccurateRip v1 signature : E7AC0DF7
    AccurateRip v2 signature : 76F42E05
        ->Accurately ripped (v2, confidence 3/3)
    Statistics
        Read error                           : 0
        Jitter error (maybe fixed)           : 0
        Retry sector count                   : 0
        Damaged sector count                 : 0

Track 11
    Filename : /Volumes/Hollywood and Vine/Rips/Beegie Adair - Into Somethin' (2010) [FLAC]/11 They Can't Take That Away from Me.flac
    Pre-gap length : 00:01:66

    Track gain               : -3.95 dB
    Peak                     : 0.938751
    CRC32 hash (test run)    : 86B365A9
    CRC32 hash               : 86B365A9
    CRC32 hash (skip zero)   : FCE9C266
    AccurateRip v1 signature : 949BA399
    AccurateRip v2 signature : EE670B74
        ->Accurately ripped (v2, confidence 3/3)
    Statistics
        Read error                           : 0
        Jitter error (maybe fixed)           : 0
        Retry sector count                   : 0
        Damaged sector count                 : 0

No errors occurred

End of status report

-----BEGIN XLD SIGNATURE-----
6lzRyKY_gwy1Nquc_x9DagKpx_kkFBNmu08AK0PZNnhfzib6uTnBKGkeuNg_TmPinqlx0nm7oPdU.rXc9uBUBaTou649Bug5reAVcF8
-----END XLD SIGNATURE-----
По всем вопросам пишите личное сообщение пользователю M0p94ok.
22:15
659
Нет комментариев. Ваш будет первым!