Поиск

2011 Barb Jungr - Those Days (2015) {Aurora} [DSD64 ISO]

2011 Barb Jungr - Those Days (2015) {Aurora} [DSD64 ISO]
Номер по каталогу:
AKCD008SA
Носитель:
SACD
Формат:
DSD
Тип рипа:
image
Контейнер:
ISO (*.iso)
Количество каналов:
2.0
Разрядность/ЧД:
64 (2,8 MHz/1 Bit)
Битрейт аудио:
lossless
Время звучания:
00:56:03
Наличие сканов:
только обложка

01. Not Dark Yet
02. Waterloo Sunset
03. Kentucky Rain
04. Cri du coeur
05. If Not For You
06. Do You Play Guitar
07. What Good Am I
08. Sunday Morning St.Denis
09. I'll Be YOur Baby Tonight
10. Cathy's Clown
11. To Love Somebody
12. Way Over Yonder
13. Always On My Mind

Состав:
  • Barb Jungr    vocals
Лог проверки качества
foobar2000 1.6.5 / Замер динамического диапазона (DR) 1.1.1
Дата отчёта:  2021-12-20 23:26:28
--------------------------------------------------------------------------------
Анализ:   Barb Jungr / Those Days
--------------------------------------------------------------------------------
DR         Пики         RMS           Продолжительность трека
--------------------------------------------------------------------------------
DR12      -6.93 дБ   -22.30 дБ      4:35 01-Not Dark Yet
DR9       -8.61 дБ   -20.25 дБ      4:29 02-Waterloo Sunset
DR11      -8.21 дБ   -23.49 дБ      4:49 03-Kentucky Rain
DR11      -6.84 дБ   -20.36 дБ      2:38 04-Cri du coeur
DR11      -5.73 дБ   -19.37 дБ      3:05 05-If Not For You
DR10      -7.50 дБ   -19.80 дБ      3:53 06-Do You Play Guitar
DR12      -6.88 дБ   -22.34 дБ      3:56 07-What Good Am I
DR11      -6.30 дБ   -20.29 дБ      6:28 08-Sunday Morning St.Denis
DR12      -6.98 дБ   -22.57 дБ      4:03 09-I'll Be YOur Baby Tonight
DR8       -8.21 дБ   -17.40 дБ      3:32 10-Cathy's Clown
DR8       -7.97 дБ   -17.98 дБ      5:17 11-To Love Somebody
DR11      -8.01 дБ   -22.53 дБ      4:10 12-Way Over Yonder
DR12      -7.95 дБ   -24.33 дБ      5:09 13-Always On My Mind
--------------------------------------------------------------------------------
Количество треков: 13
Реальные значения DR: DR11
Частота:   2822400 Гц / Частота PCM: 88200 Гц
Каналов:   2
Разрядность:   1
Битрейт:   5645 кбит/с
Кодек:   DSD64
================================================================================
Приватный:
Нет (DHT включён)
Размер:
2.26 Гб (2,424,679,228 байт) » файлов: 5
Участники:
33 раздают, 2 качают (35 участников всего)
Внешние участники:
14 раздают, 5 качают (19 участников всего) [ Обновить ]
09:54
417
Нет комментариев. Ваш будет первым!