Поиск

2010 Saori Yano - Bebop at the Savoy (2014) {Nippon Columbia} [24-88.2]

2010 Saori Yano - Bebop at the Savoy (2014) {Nippon Columbia} [24-88.2]
Стили:
Дата записи диска:
10 ноября - 11 ноября 2009
Место записи:
Sear Recording Studio, New York
Издатель (лейбл):
Носитель:
WEB
Формат:
PCM
Тип рипа:
tracks
Количество каналов:
2.0
Разрядность/ЧД:
24/88,2
Битрейт аудио:
lossless
Время звучания:
00:59:56
Наличие сканов:
только обложка
Релизёр (источник):
mora

01. The Kicker (Henderson) - 4:35
02. Sweet Cakes (Mitchell) - 4:37
03. Blues Walk (Donaldson) - 8:40
04. You'd Be So Nice to Come Home To (Porter) - 5:22
05. S' Wonderful (Gershwin) - 5:14
06. Lullaby of Birdland (Shearing) - 4:47
07. Olive Refractions (Simmons) - 3:42
08. Stardust (Carmichael) - 5:51
09. Five Spot After Dark (Golson) - 7:46
10. How High the Moon (Lewis) - 4:06
11. Laura Peacock/Theme of "Taiyou no Fune" (Yano) - 5:16

Состав:
  • Saori Yano — alto saxophone
  • Jim Rotondi — trumpet (#1,2,6,7,10)
  • Randy Johnston (#1-10), Satoshi Onoue (#11) — guitar
  • Pat Bianchi — Hammond organ (#1-7,9,10)
  • Fukushi Tainaka (#1-7,9,10), Hideo Yamaki (#11) — drums
  • Yoshiaki Sato — accordion (#11)
  • Tomio Inoue — bass (#11)
  • Whacho — percussion (#11)
  • Hideo Ichikawa — piano (#11)
  • Neko Saito — violin (#11)
Лог проверки качества
foobar2000 1.6.8 / Dynamic Range Meter 1.1.1
log date: 2021-11-17 23:24:10
--------------------------------------------------------------------------------
Analyzed: Saori Yano / Bebop at the Savoy
--------------------------------------------------------------------------------
DR         Peak         RMS     Duration Track
--------------------------------------------------------------------------------
DR10      -0.18 dB   -11.92 dB      4:35 01-The Kicker
DR12      -0.21 dB   -14.74 dB      4:37 02-Sweet Cakes
DR11      -0.21 dB   -14.32 dB      8:40 03-Blues Walk
DR13      -0.22 dB   -16.11 dB      5:22 04-You'd Be So Nice to Come Home To
DR12      -0.20 dB   -14.00 dB      5:14 05-S' Wonderful
DR13      -0.21 dB   -15.11 dB      4:47 06-Lullaby of Birdland
DR11      -0.21 dB   -13.31 dB      3:42 07-Olive Refractions
DR14      -0.23 dB   -18.15 dB      5:51 08-Stardust
DR12      -0.21 dB   -14.58 dB      7:46 09-Five Spot After Dark
DR11      -0.15 dB   -13.38 dB      4:06 10-How High the Moon
DR12      -0.21 dB   -15.61 dB      5:16 11-Laura Peacock/Theme of 'Taiyou no Fune'
--------------------------------------------------------------------------------
Number of tracks:  11
Official DR value: DR12
Samplerate:        88200 Hz
Channels:          2
Bits per sample:   24
Bitrate:           2671 kbps
Codec:             FLAC
================================================================================
Скачивание доступно после регистрации!!
Приватный:
Нет (DHT включён)
Размер:
1.21 Гб (1,300,816,781 байт) » файлов: 14
Участники:
4 раздают, 0 качают (4 участников всего)
Внешние участники:
2 раздают, 1 качают (3 участников всего) [ Обновить ]
13:21
616
Нет комментариев. Ваш будет первым!