Поиск

2010 Ratko Zjaca, Simone Zanchini, Martin Gjakonovski, Adam Nussbaum - The Way We Talk {In+Out} [24-44.1]

2010 Ratko Zjaca, Simone Zanchini, Martin Gjakonovski, Adam Nussbaum - The Way We Talk {In+Out} [24-44.1]
Стили:
Издатель (лейбл):
Номер по каталогу:
IOR 77104-2
Носитель:
WEB
Формат:
PCM
Тип рипа:
tracks
Контейнер:
FLAC (*.flac)
Количество каналов:
2.0
Разрядность/ЧД:
24/44,1
Битрейт аудио:
lossless
Время звучания:
01:04:09
Наличие сканов:
только обложка

Треклист:

01 - Pippo 04:05
02 - Twilight 06:39
03 - Kandinsky Night (For Miroslav Vitous) 05:19
04 - One Mind Temple 05:22
05 - Frida Is Vanished 06:36
06 - Morgagni Est 07:17
07 - La Stanza di Arturo 05:13
08 - The Forest of Love 04:42
09 - Adam and Eve 05:18
10 - A Friend for Life 07:09
11 - Out of Body 06:29

Состав:
  • Ratko Zjaca, electric guitar, acoustic & bariton guitar, effects
  • Simone Zanchini, accordion, live electronics
  • Martin Gjakonovski, double bass
  • Adam Nussbaum, drums
Лог проверки качества
foobar2000 1.4.3 / Dynamic Range Meter 1.1.1
log date: 2021-11-27 17:16:51
--------------------------------------------------------------------------------
Analyzed: Ratko Zjaca / The Way We Talk
--------------------------------------------------------------------------------
DR         Peak         RMS     Duration Track
--------------------------------------------------------------------------------
DR7       -1.05 dB   -10.20 dB      4:05 01-Pippo
DR7       -1.05 dB   -10.53 dB      6:39 02-Twilight
DR7       -1.05 dB   -10.23 dB      5:19 03-Kandinsky Night (For Miroslav Vitous)
DR7       -1.05 dB   -10.27 dB      5:23 04-One Mind Temple
DR11      -1.06 dB   -14.35 dB      6:36 05-Frida Is Vanished
DR8       -1.05 dB   -11.78 dB      7:18 06-Morgagni Est
DR7       -1.05 dB    -9.67 dB      5:14 07-La Stanza di Arturo
DR11      -1.64 dB   -15.17 dB      4:42 08-The Forest of Love
DR8       -1.05 dB   -10.74 dB      5:18 09-Adam and Eve
DR11      -1.06 dB   -14.66 dB      7:10 10-A Friend for Life
DR7       -1.05 dB    -9.95 dB      6:30 11-Out of Body
--------------------------------------------------------------------------------
Number of tracks:  11
Official DR value: DR8
Samplerate:        44100 Hz
Channels:          2
Bits per sample:   24
Bitrate:           1655 kbps
Codec:             FLAC
================================================================================
13:48
336
Нет комментариев. Ваш будет первым!