Поиск

2010 Mike LeDonne - The Groover {Savant SCD 2100} [CD]

2010 Mike LeDonne - The Groover {Savant SCD 2100} [CD]
Издатель (лейбл):
Треклист:

01. Rock With You (06:58)
02. Blues For McCoy (06:36)
03. Little Mary (06:39)
04. I'm Goona Make You Love Me (08:24)
05. Deep Blue (07:17)
06. Sunday in New York (05:43)
07. Bopsolete (06:03)
08. The Groover (07:58)
09. On the Street Where You Live (06:14)

Состав:
  • Mike LeDonne — Hammond B-3 Organ
  • Eric Alexander — tenor saxophone
  • Peter Bernstein — guitar
  • Joe Farnsworth — drums

Жанр: Post-Bop, Straight-Ahead Jazz
Носитель: CD
Год издания: 2010
Издатель (лейбл): Savant
Номер по каталогу: SCD 2100
Аудиокодек: FLAC (*.flac)
Тип рипа: tracks+.cue
Продолжительность: 01:01:56
Источник (релизер): www
Наличие сканов в содержимом раздачи: нет

Лог создания рипа
Exact Audio Copy V1.3 from 2. September 2016

EAC extraction logfile from 13. January 2019, 22:20

Mike Ledonne / The Groover

Used drive  : ATAPI   iHAS124   F   Adapter: 1  ID: 0

Read mode               : Secure
Utilize accurate stream : Yes
Defeat audio cache      : Yes
Make use of C2 pointers : No

Read offset correction                      : 6
Overread into Lead-In and Lead-Out          : No
Fill up missing offset samples with silence : Yes
Delete leading and trailing silent blocks   : No
Null samples used in CRC calculations       : Yes
Used interface                              : Native Win32 interface for Win NT & 2000
Gap handling                                : Appended to previous track

Used output format              : User Defined Encoder
Selected bitrate                : 1024 kBit/s
Quality                         : High
Add ID3 tag                     : No
Command line compressor         : C:\Program Files (x86)\Exact Audio Copy\Flac\flac.exe
Additional command line options : -8 -e -p -V -T "ARTIST=%artist%" -T "TITLE=%title%" -T "ALBUM=%albumtitle%" -T "DATE=%year%" -T "TRACKNUMBER=%tracknr%" -T "GENRE=%genre%" -T "PERFORMER=%albuminterpret%" -T "COMPOSER=%composer%" %haslyrics%--tag-from-file=LYRICS="%lyricsfile%"%haslyrics% -T "ALBUMARTIST=%albumartist%" -T "DISCNUMBER=%cdnumber%" -T "TOTALDISCS=%totalcds%" -T "TOTALTRACKS=%numtracks%" -T "COMMENT=%comment%" %source% -o %dest%

TOC of the extracted CD

     Track |   Start  |  Length  | Start sector | End sector
    ---------------------------------------------------------
        1  |  0:00.00 |  6:58.73 |         0    |    31422
        2  |  6:58.73 |  6:36.22 |     31423    |    61144
        3  | 13:35.20 |  6:39.17 |     61145    |    91086
        4  | 20:14.37 |  8:24.18 |     91087    |   128904
        5  | 28:38.55 |  7:17.17 |    128905    |   161696
        6  | 35:55.72 |  5:43.59 |    161697    |   187480
        7  | 41:39.56 |  6:03.24 |    187481    |   214729
        8  | 47:43.05 |  7:58.31 |    214730    |   250610
        9  | 55:41.36 |  6:14.66 |    250611    |   278726

Track  1

     Filename F:\Dropbox\EAC\Mike Ledonne - The Groover (2010) [FLAC]\01 - Rock With You.wav

     Pre-gap length  0:00:02.00

     Peak level 100.0 %
     Extraction speed 5.1 X
     Track quality 99.9 %
     Test CRC 2EF8CCAD
     Copy CRC 2EF8CCAD
     Accurately ripped (confidence 4)  [DEC5FAE2]  (AR v2)
     Copy OK

Track  2

     Filename F:\Dropbox\EAC\Mike Ledonne - The Groover (2010) [FLAC]\02 - Blues For McCoy.wav

     Peak level 98.8 %
     Extraction speed 6.6 X
     Track quality 100.0 %
     Test CRC E8D76685
     Copy CRC E8D76685
     Accurately ripped (confidence 4)  [594AF9C3]  (AR v2)
     Copy OK

Track  3

     Filename F:\Dropbox\EAC\Mike Ledonne - The Groover (2010) [FLAC]\03 - Little Mary.wav

     Peak level 100.0 %
     Extraction speed 7.4 X
     Track quality 100.0 %
     Test CRC 27650BAC
     Copy CRC 27650BAC
     Accurately ripped (confidence 4)  [D083CAEC]  (AR v2)
     Copy OK

Track  4

     Filename F:\Dropbox\EAC\Mike Ledonne - The Groover (2010) [FLAC]\04 - I'm Goona Make You Love Me.wav

     Peak level 93.2 %
     Extraction speed 8.4 X
     Track quality 100.0 %
     Test CRC D9CFB374
     Copy CRC D9CFB374
     Accurately ripped (confidence 4)  [1A4E6EF2]  (AR v2)
     Copy OK

Track  5

     Filename F:\Dropbox\EAC\Mike Ledonne - The Groover (2010) [FLAC]\05 - Deep Blue.wav

     Peak level 96.7 %
     Extraction speed 8.1 X
     Track quality 99.9 %
     Test CRC 53559C23
     Copy CRC 53559C23
     Accurately ripped (confidence 4)  [D17C7739]  (AR v2)
     Copy OK

Track  6

     Filename F:\Dropbox\EAC\Mike Ledonne - The Groover (2010) [FLAC]\06 - Sunday in New York.wav

     Peak level 98.8 %
     Extraction speed 9.4 X
     Track quality 100.0 %
     Test CRC 418B861B
     Copy CRC 418B861B
     Accurately ripped (confidence 4)  [E4B823E7]  (AR v2)
     Copy OK

Track  7

     Filename F:\Dropbox\EAC\Mike Ledonne - The Groover (2010) [FLAC]\07 - Bopsolete.wav

     Peak level 100.0 %
     Extraction speed 10.0 X
     Track quality 100.0 %
     Test CRC 42872A80
     Copy CRC 42872A80
     Accurately ripped (confidence 3)  [6F0F96C1]  (AR v2)
     Copy OK

Track  8

     Filename F:\Dropbox\EAC\Mike Ledonne - The Groover (2010) [FLAC]\08 - The Groover.wav

     Peak level 100.0 %
     Extraction speed 9.6 X
     Track quality 99.9 %
     Test CRC CC9592EB
     Copy CRC CC9592EB
     Accurately ripped (confidence 4)  [D1EA3270]  (AR v2)
     Copy OK

Track  9

     Filename F:\Dropbox\EAC\Mike Ledonne - The Groover (2010) [FLAC]\09 - On the Street Where You Live.wav

     Peak level 98.8 %
     Extraction speed 11.0 X
     Track quality 100.0 %
     Test CRC 63CA3EFC
     Copy CRC 63CA3EFC
     Accurately ripped (confidence 4)  [C83CCCE6]  (AR v2)
     Copy OK

All tracks accurately ripped

No errors occurred

End of status report

---- CUETools DB Plugin V2.1.6

[CTDB TOCID: v_i1qc5AcFCujwN0yXQLuG.qf4Q-] found
Submit result: v_i1qc5AcFCujwN0yXQLuG.qf4Q- has been confirmed
Track | CTDB Status
  1   | (3/3) Accurately ripped
  2   | (3/3) Accurately ripped
  3   | (3/3) Accurately ripped
  4   | (3/3) Accurately ripped
  5   | (3/3) Accurately ripped
  6   | (3/3) Accurately ripped
  7   | (3/3) Accurately ripped
  8   | (3/3) Accurately ripped
  9   | (3/3) Accurately ripped

==== Log checksum 18DFFD0485D3558097F90320219DDCAC2B521E6AD29B05A93A6DFEC9A3B86E7F ====
Содержание индексной карты (.CUE)
REM GENRE Jazz
REM DATE 2010
REM DISCID 650E8409
REM COMMENT "ExactAudioCopy v1.3"
PERFORMER "Mike Ledonne"
TITLE "The Groover"
REM COMPOSER ""
FILE "01 - Rock With You.wav" WAVE
  TRACK 01 AUDIO
    TITLE "Rock With You"
    PERFORMER "Mike Ledonne"
    REM COMPOSER ""
    ISRC USSTR1010001
    INDEX 01 00:00:00
FILE "02 - Blues For McCoy.wav" WAVE
  TRACK 02 AUDIO
    TITLE "Blues For McCoy"
    PERFORMER "Mike Ledonne"
    REM COMPOSER ""
    ISRC USSTR1010002
    INDEX 01 00:00:00
FILE "03 - Little Mary.wav" WAVE
  TRACK 03 AUDIO
    TITLE "Little Mary"
    PERFORMER "Mike Ledonne"
    REM COMPOSER ""
    ISRC USSTR1010003
    INDEX 01 00:00:00
FILE "04 - I'm Goona Make You Love Me.wav" WAVE
  TRACK 04 AUDIO
    TITLE "I'm Goona Make You Love Me"
    PERFORMER "Mike Ledonne"
    REM COMPOSER ""
    ISRC USSTR1010004
    INDEX 01 00:00:00
FILE "05 - Deep Blue.wav" WAVE
  TRACK 05 AUDIO
    TITLE "Deep Blue"
    PERFORMER "Mike Ledonne"
    REM COMPOSER ""
    ISRC USSTR1010005
    INDEX 01 00:00:00
FILE "06 - Sunday in New York.wav" WAVE
  TRACK 06 AUDIO
    TITLE "Sunday in New York"
    PERFORMER "Mike Ledonne"
    REM COMPOSER ""
    ISRC USSTR1010006
    INDEX 01 00:00:00
FILE "07 - Bopsolete.wav" WAVE
  TRACK 07 AUDIO
    TITLE "Bopsolete"
    PERFORMER "Mike Ledonne"
    REM COMPOSER ""
    ISRC USSTR1010007
    INDEX 01 00:00:00
FILE "08 - The Groover.wav" WAVE
  TRACK 08 AUDIO
    TITLE "The Groover"
    PERFORMER "Mike Ledonne"
    REM COMPOSER ""
    ISRC USSTR1010008
    INDEX 01 00:00:00
FILE "09 - On the Street Where You Live.wav" WAVE
  TRACK 09 AUDIO
    TITLE "On the Street Where You Live"
    PERFORMER "Mike Ledonne"
    REM COMPOSER ""
    ISRC USSTR1010009
    INDEX 01 00:00:00
Download available for power users only.
05:41
638
Нет комментариев. Ваш будет первым!