Вы используете незарегистрированную версию компонента "Вкладки"!

Поиск

2010 Christian Howes ft. Robben Ford - Out of the Blue (2017) {2xHD} [24-44,1]

2010 Christian Howes ft. Robben Ford - Out of the Blue (2017) {2xHD} [24-44,1]
Стили:
Доп. инфо:

Формат записи/Источник записи: [TR24][OF]
Издание: Remastered
Год издания/переиздания диска: 2010/2017
Издатель (лейбл): 2xHD
Продолжительность: 01:01:02
Наличие сканов в содержимом раздачи: Буклет PDF

Контейнер: FLAC (*.flac)
Тип рипа: tracks
Разрядность: 24/44,1
Количество каналов: 2.0

Источник (релизер): PROSTUDIOMASTERS

Лог проверки качества
foobar2000 1.4.3 / Dynamic Range Meter 1.1.1
log date: 2019-12-06 13:11:54

--------------------------------------------------------------------------------
Analyzed: Christian Howes & Robben Ford / Out of the Blue (Remastered)
--------------------------------------------------------------------------------

DR         Peak         RMS     Duration Track
--------------------------------------------------------------------------------
DR12      -1.89 dB   -16.24 dB      7:11 01-Fingerprints
DR11      -1.99 dB   -15.24 dB      7:26 02-I'm Walkin'
DR11      -1.94 dB   -15.24 dB      5:41 03-Cape Verdean Blues
DR11      -1.60 dB   -14.26 dB      5:35 04-Gumbo Klomp
DR12      -1.62 dB   -16.17 dB      6:17 05-Out of the Blue
DR12      -2.14 dB   -16.63 dB      5:51 06-Seek and Ye Shall Find
DR12      -1.97 dB   -15.89 dB      5:03 07-Bobby's Bad
DR13      -2.12 dB   -17.71 dB      6:27 08-Sing Me Softly of the Blues
DR12      -1.87 dB   -16.18 dB      5:04 09-When Will the Blues Leave
DR13      -2.88 dB   -19.12 dB      6:27 10-Sweet Lorraine
--------------------------------------------------------------------------------

Number of tracks:  10
Official DR value: DR12

Samplerate:        44100 Hz
Channels:          2
Bits per sample:   24
Bitrate:           1259 kbps
Codec:             FLAC
================================================================================
Any questions - support@pro-jazz.com. Есть вопросы - support@pro-jazz.com
11:56
220
Нет комментариев. Ваш будет первым!