Вы используете незарегистрированную версию компонента "Вкладки"!

Поиск

2009 VA - Telarc Heads Up SACD Sampler Vol 7 (Sampler) [DST64]

2009 VA - Telarc Heads Up SACD Sampler Vol 7 (Sampler) [DST64]
Издатель (лейбл):
Доп. инфо:

Формат записи/Источник записи: [SACD-R][OF]
Наличие водяных знаков: Нет
Издание: Sampler
Год издания/переиздания диска: 2009
Издатель(лейбл): Telarc
Продолжительность: 01:04:25
Наличие сканов в содержимом раздачи: Да
Контейнер: ISO (*.iso)
Тип рипа: image
Разрядность: 64 (2,8 MHz/1 Bit)
Формат: DST64
Количество каналов: 2.0 & 5.1

Источник (релизер): ManWhoCan

http://www.amazon.co.uk/Telarc-Heads-Up-World-Sampler/dp/B001NE81RQ

Лог проверки качества
foobar2000 1.3.8 / Dynamic Range Meter 1.1.1
log date: 2015-12-14 13:32:20
--------------------------------------------------------------------------------
Analyzed: Various Artists / Telarc/Heads Up SACD Sampler 7
--------------------------------------------------------------------------------
DR         Peak         RMS     Duration Track
--------------------------------------------------------------------------------
DR19      -9.86 dB   -23.48 dB      6:23 01-Some Skunk Funk
DR14      -5.42 dB   -25.29 dB      4:35 02-Oh, What A Beautiful Morning
DR14      -6.82 dB   -30.24 dB      5:33 03-You Are My Sunshine
DR15      -6.30 dB   -25.39 dB      8:48 04-Caravan
DR13      -8.13 dB   -27.27 dB      3:31 05-O Morro nгo tem vez
DR15      -3.49 dB   -23.46 dB      5:11 06-Hurry Up And Wait
DR24      -5.55 dB   -29.76 dB      6:48 07-Dreams Go
DR22      -7.45 dB   -24.20 dB      9:36 08-Tumbleweed
DR12     -10.60 dB   -26.86 dB      3:10 09-Prelude for Lovers
DR14      -9.88 dB   -26.56 dB      5:50 10-Simple Pleasures
DR10     -15.30 dB   -28.21 dB      5:01 11-This Is The Way We Do
--------------------------------------------------------------------------------
Number of tracks:  11
Official DR value: DR16
Samplerate:        2822400 Hz / PCM Samplerate: 176400 Hz
Channels:          6
Bits per sample:   24
Bitrate:           16934 kbps
Codec:             DST64
================================================================================
--------------------------------------------------------------------------------
Analyzed: Various Artists / Telarc/Heads Up SACD Sampler 7
--------------------------------------------------------------------------------
DR         Peak         RMS     Duration Track
--------------------------------------------------------------------------------
DR9       -9.95 dB   -20.69 dB      6:23 01-Some Skunk Funk
DR12      -7.35 dB   -24.24 dB      4:35 02-Oh, What A Beautiful Morning
DR14      -9.03 dB   -28.73 dB      5:33 03-You Are My Sunshine
DR15      -5.40 dB   -22.69 dB      8:48 04-Caravan
DR14      -3.77 dB   -21.68 dB      3:31 05-O Morro nгo tem vez
DR15      -3.69 dB   -20.50 dB      5:11 06-Hurry Up And Wait
DR14      -8.20 dB   -26.40 dB      6:48 07-Dreams Go
DR11      -8.66 dB   -22.27 dB      9:36 08-Tumbleweed
DR11      -9.87 dB   -24.09 dB      3:10 09-Prelude for Lovers
DR8      -12.03 dB   -21.99 dB      5:50 10-Simple Pleasures
DR11     -12.98 dB   -25.28 dB      5:01 11-This Is The Way We Do
--------------------------------------------------------------------------------
Number of tracks:  11
Official DR value: DR12
Samplerate:        2822400 Hz / PCM Samplerate: 176400 Hz
Channels:          2
Bits per sample:   24
Bitrate:           5645 kbps
Codec:             DST64
================================================================================
Any questions - support@pro-jazz.com. Есть вопросы - support@pro-jazz.com
07:17
262
Нет комментариев. Ваш будет первым!