Поиск

2009 Sven-Åke Johansson - Sven-Åke Johansson's Ol' Man Rebop Ensemble {SÅJ-CD1 + 2} [CD]

2009 Sven-Åke Johansson - Sven-Åke Johansson's Ol' Man Rebop Ensemble {SÅJ-CD1 + 2} [CD]
Треклист:

CD1 (00:58:40)
1-1 They Say That Falling In Love Is Wonderful 5:38
1-2 I'll Be Seeing You 8:06
1-3 I Only Have Eyes For You 6:49
1-4 When Will The Blues Leave 6:17
1-5 Joy Spring 5:26
1-6 Darn That Dream 8:21
1-7 Rebop 4:42
1-8 You And The Night And The Music 7:57
1-9 From This Moment On 5:14

CD2 (00:51:21)
2-1 Rebop (Theme) 0:43
2-2 No Moon At All 5:39
2-3 Angel Eyes 8:31
2-4 You Stepped Out Of A Dream 6:23
2-5 I've Told Every Little Star 4:42
2-6 Gone With The Wind 5:05
2-7 Without A Song 5:57
2-8 The Way You Look Tonight 6:32
2-9 If I Should Loose You 7:30

Жанр: Free Jazz, Bop, Cool Jazz
Носитель: CD
Страна-производитель диска (релиза): Germany
Год издания: 2009
Издатель (лейбл): SÅJ ‎
Номер по каталогу: SÅJ-CD1 + 2
Аудиокодек: FLAC (*.flac)
Тип рипа: tracks+.cue
Битрейт аудио: lossless
Продолжительность: 00:00:00
Источник: локальная сеть
Наличие сканов в содержимом раздачи: нет

Состав:
  • Alto Saxophone – Henrik Walsdorff
  • Double Bass – Matthias Bauer
  • Drums – Sven-Åke Johansson
  • Piano – Ulrich Gumpert
  • Trumpet – Axel Dörner
Лог создания рипа
CD1
X Lossless Decoder version 20141129a (148.2)

XLD extraction logfile from 2015-10-05 21:54:57 +0300

Sven-Åke Johanssons Ol'man Rebop Ensemble / Sven-Åke Johanssons Ol'man Rebop Ensemble

Used drive : HL-DT-ST DVDRW  GX30N (revision RP09)
Media type : Pressed CD

Ripper mode             : XLD Secure Ripper
Disable audio cache     : OK for the drive with a cache less than 1375KiB
Make use of C2 pointers : NO
Read offset correction  : 6
Max retry count         : 400
Gap status              : Analyzed, Appended (except HTOA)

TOC of the extracted CD
     Track |   Start  |  Length  | Start sector | End sector
    ---------------------------------------------------------
        1  | 00:00:00 | 05:31:19 |         0    |    24843
        2  | 05:31:19 | 08:04:00 |     24844    |    61143
        3  | 13:35:19 | 06:52:47 |     61144    |    92090
        4  | 20:27:66 | 06:19:54 |     92091    |   120569
        5  | 26:47:45 | 05:28:47 |    120570    |   145216
        6  | 32:16:17 | 08:26:04 |    145217    |   183170
        7  | 40:42:21 | 04:44:28 |    183171    |   204498
        8  | 45:26:49 | 07:59:20 |    204499    |   240443
        9  | 53:25:69 | 05:14:38 |    240444    |   264031

AccurateRip Summary
    Disc not found in AccurateRip DB.

All Tracks
    Album gain               : 1.05 dB
    Peak                     : 1.000000
    Statistics
        Read error                           : 0
        Jitter error (maybe fixed)           : 0
        Retry sector count                   : 0
        Damaged sector count                 : 0

Track 01
    Filename : /Users/BK/Music/Grabbed/Sven-Ake Johanssons Ol'man Rebop Ensemble/F 1998 - Sven-Ake Johanssons Ol'man Rebop Ensemble/01 - They Say That Falling in Love is Wonderful.flac
    Pre-gap length : 00:02:00

    Track gain               : 1.53 dB
    Peak                     : 0.965363
    CRC32 hash (test run)    : F47CAAE1
    CRC32 hash               : F47CAAE1
    CRC32 hash (skip zero)   : 777208F9
    AccurateRip v1 signature : E7FFCDF5
    AccurateRip v2 signature : C3EEE6F4
        ->Track not present in AccurateRip database.
    Statistics
        Read error                           : 0
        Jitter error (maybe fixed)           : 0
        Retry sector count                   : 0
        Damaged sector count                 : 0

Track 02
    Filename : /Users/BK/Music/Grabbed/Sven-Ake Johanssons Ol'man Rebop Ensemble/F 1998 - Sven-Ake Johanssons Ol'man Rebop Ensemble/02 - I'll Be Seeing You.flac
    Pre-gap length : 00:02:00

    Track gain               : 3.96 dB
    Peak                     : 1.000000
    CRC32 hash (test run)    : 58993D2F
    CRC32 hash               : 58993D2F
    CRC32 hash (skip zero)   : 023A5F08
    AccurateRip v1 signature : DC403928
    AccurateRip v2 signature : 0000C7B3
        ->Track not present in AccurateRip database.
    Statistics
        Read error                           : 0
        Jitter error (maybe fixed)           : 0
        Retry sector count                   : 0
        Damaged sector count                 : 0

Track 03
    Filename : /Users/BK/Music/Grabbed/Sven-Ake Johanssons Ol'man Rebop Ensemble/F 1998 - Sven-Ake Johanssons Ol'man Rebop Ensemble/03 - I Only Have Eyes for You.flac
    Pre-gap length : 00:02:00

    Track gain               : 1.38 dB
    Peak                     : 0.937500
    CRC32 hash (test run)    : F60503BD
    CRC32 hash               : F60503BD
    CRC32 hash (skip zero)   : 3CC59204
    AccurateRip v1 signature : B0DF6AA5
    AccurateRip v2 signature : FE4BE6E6
        ->Track not present in AccurateRip database.
    Statistics
        Read error                           : 0
        Jitter error (maybe fixed)           : 0
        Retry sector count                   : 0
        Damaged sector count                 : 0

Track 04
    Filename : /Users/BK/Music/Grabbed/Sven-Ake Johanssons Ol'man Rebop Ensemble/F 1998 - Sven-Ake Johanssons Ol'man Rebop Ensemble/04 - When Will the Blues Leave.flac
    Pre-gap length : 00:02:00

    Track gain               : 0.15 dB
    Peak                     : 1.000000
    CRC32 hash (test run)    : 198DBC2D
    CRC32 hash               : 198DBC2D
    CRC32 hash (skip zero)   : AF3714FD
    AccurateRip v1 signature : 9CD0509E
    AccurateRip v2 signature : A973641C
        ->Track not present in AccurateRip database.
    Statistics
        Read error                           : 0
        Jitter error (maybe fixed)           : 0
        Retry sector count                   : 0
        Damaged sector count                 : 0

Track 05
    Filename : /Users/BK/Music/Grabbed/Sven-Ake Johanssons Ol'man Rebop Ensemble/F 1998 - Sven-Ake Johanssons Ol'man Rebop Ensemble/05 - Joy Spring.flac
    Pre-gap length : 00:02:00

    Track gain               : 0.52 dB
    Peak                     : 1.000000
    CRC32 hash (test run)    : D1AB3A0D
    CRC32 hash               : D1AB3A0D
    CRC32 hash (skip zero)   : D10222FD
    AccurateRip v1 signature : 39A102E8
    AccurateRip v2 signature : F2B9E2E7
        ->Track not present in AccurateRip database.
    Statistics
        Read error                           : 0
        Jitter error (maybe fixed)           : 0
        Retry sector count                   : 0
        Damaged sector count                 : 0

Track 06
    Filename : /Users/BK/Music/Grabbed/Sven-Ake Johanssons Ol'man Rebop Ensemble/F 1998 - Sven-Ake Johanssons Ol'man Rebop Ensemble/06 - Darn That Dream.flac
    Pre-gap length : 00:02:00

    Track gain               : 2.85 dB
    Peak                     : 1.000000
    CRC32 hash (test run)    : 2AB271CD
    CRC32 hash               : 2AB271CD
    CRC32 hash (skip zero)   : 5FB3220F
    AccurateRip v1 signature : 0EF02EA1
    AccurateRip v2 signature : 589BFD9E
        ->Track not present in AccurateRip database.
    Statistics
        Read error                           : 0
        Jitter error (maybe fixed)           : 0
        Retry sector count                   : 0
        Damaged sector count                 : 0

Track 07
    Filename : /Users/BK/Music/Grabbed/Sven-Ake Johanssons Ol'man Rebop Ensemble/F 1998 - Sven-Ake Johanssons Ol'man Rebop Ensemble/07 - Rebop.flac
    Pre-gap length : 00:02:00

    Track gain               : 0.94 dB
    Peak                     : 1.000000
    CRC32 hash (test run)    : BD7BFF1F
    CRC32 hash               : BD7BFF1F
    CRC32 hash (skip zero)   : 2DDD729E
    AccurateRip v1 signature : C6970706
    AccurateRip v2 signature : 0616F2B5
        ->Track not present in AccurateRip database.
    Statistics
        Read error                           : 0
        Jitter error (maybe fixed)           : 0
        Retry sector count                   : 0
        Damaged sector count                 : 0

Track 08
    Filename : /Users/BK/Music/Grabbed/Sven-Ake Johanssons Ol'man Rebop Ensemble/F 1998 - Sven-Ake Johanssons Ol'man Rebop Ensemble/08 - You and the Night and the Music.flac
    Pre-gap length : 00:02:00

    Track gain               : 2.80 dB
    Peak                     : 0.999969
    CRC32 hash (test run)    : DBC0122B
    CRC32 hash               : DBC0122B
    CRC32 hash (skip zero)   : 6607F900
    AccurateRip v1 signature : 7C08638C
    AccurateRip v2 signature : 39C7105F
        ->Track not present in AccurateRip database.
    Statistics
        Read error                           : 0
        Jitter error (maybe fixed)           : 0
        Retry sector count                   : 0
        Damaged sector count                 : 0

Track 09
    Filename : /Users/BK/Music/Grabbed/Sven-Ake Johanssons Ol'man Rebop Ensemble/F 1998 - Sven-Ake Johanssons Ol'man Rebop Ensemble/09 - From This Moment On.flac
    Pre-gap length : 00:02:00

    Track gain               : -1.82 dB
    Peak                     : 1.000000
    CRC32 hash (test run)    : C43CE5A4
    CRC32 hash               : C43CE5A4
    CRC32 hash (skip zero)   : 85CAA63B
    AccurateRip v1 signature : 2609B753
    AccurateRip v2 signature : 34691C92
        ->Track not present in AccurateRip database.
    Statistics
        Read error                           : 0
        Jitter error (maybe fixed)           : 0
        Retry sector count                   : 0
        Damaged sector count                 : 0

No errors occurred

End of status report

-----BEGIN XLD SIGNATURE-----
lLdvvkupgerONGqGqgUdg56xu42w4EIB1ztQiUvVA9m9b14gBiujAWNYPeLd1gAP.XUS_6odokAc3pn_WKHKYZ7del.Wx8hKHV13G5G
-----END XLD SIGNATURE-----

CD2
X Lossless Decoder version 20141129a (148.2)

XLD extraction logfile from 2015-10-06 23:15:44 +0300

Sven-Åke Johanssons Ol'man Rebop Ensemble / Sven-Åke Johanssons Ol'man Rebop Ensemble

Used drive : HL-DT-ST DVDRW  GX30N (revision RP09)
Media type : Pressed CD

Ripper mode             : XLD Secure Ripper
Disable audio cache     : OK for the drive with a cache less than 1375KiB
Make use of C2 pointers : NO
Read offset correction  : 6
Max retry count         : 400
Gap status              : Analyzed, Appended (except HTOA)

TOC of the extracted CD
     Track |   Start  |  Length  | Start sector | End sector
    ---------------------------------------------------------
        1  | 00:00:00 | 00:45:50 |         0    |     3424
        2  | 00:45:50 | 05:41:13 |      3425    |    29012
        3  | 06:26:63 | 08:33:27 |     29013    |    67514
        4  | 15:00:15 | 06:25:25 |     67515    |    96414
        5  | 21:25:40 | 04:44:25 |     96415    |   117739
        6  | 26:09:65 | 05:07:47 |    117740    |   140811
        7  | 31:17:37 | 05:59:15 |    140812    |   167751
        8  | 37:16:52 | 06:34:33 |    167752    |   197334
        9  | 43:51:10 | 07:30:38 |    197335    |   231122

AccurateRip Summary
    Disc not found in AccurateRip DB.

All Tracks
    Album gain               : 1.60 dB
    Peak                     : 1.000000
    Statistics
        Read error                           : 0
        Jitter error (maybe fixed)           : 0
        Retry sector count                   : 0
        Damaged sector count                 : 0

Track 01
    Filename : /Users/BK/Music/Grabbed/Sven-Ake Johanssons Ol'man Rebop Ensemble/F 1998 - Sven-Ake Johanssons Ol'man Rebop Ensemble/02/01 - Rebop (theme).flac
    Pre-gap length : 00:02:00

    Track gain               : -0.65 dB
    Peak                     : 0.999969
    CRC32 hash (test run)    : 33BE10A6
    CRC32 hash               : 33BE10A6
    CRC32 hash (skip zero)   : 06EBB20A
    AccurateRip v1 signature : DE8664DA
    AccurateRip v2 signature : 00CB5593
        ->Track not present in AccurateRip database.
    Statistics
        Read error                           : 0
        Jitter error (maybe fixed)           : 0
        Retry sector count                   : 0
        Damaged sector count                 : 0

Track 02
    Filename : /Users/BK/Music/Grabbed/Sven-Ake Johanssons Ol'man Rebop Ensemble/F 1998 - Sven-Ake Johanssons Ol'man Rebop Ensemble/02/02 - No Moon At All.flac
    Pre-gap length : 00:02:00

    Track gain               : 1.51 dB
    Peak                     : 1.000000
    CRC32 hash (test run)    : 2B1679CC
    CRC32 hash               : 2B1679CC
    CRC32 hash (skip zero)   : 3B731C53
    AccurateRip v1 signature : CF4507CF
    AccurateRip v2 signature : AC7AF35F
        ->Track not present in AccurateRip database.
    Statistics
        Read error                           : 0
        Jitter error (maybe fixed)           : 0
        Retry sector count                   : 0
        Damaged sector count                 : 0

Track 03
    Filename : /Users/BK/Music/Grabbed/Sven-Ake Johanssons Ol'man Rebop Ensemble/F 1998 - Sven-Ake Johanssons Ol'man Rebop Ensemble/02/03 - Angel Eyes.flac
    Pre-gap length : 00:02:00

    Track gain               : 2.90 dB
    Peak                     : 1.000000
    CRC32 hash (test run)    : 611C65B0
    CRC32 hash               : 611C65B0
    CRC32 hash (skip zero)   : A7158574
    AccurateRip v1 signature : 25096E53
    AccurateRip v2 signature : 8B61353A
        ->Track not present in AccurateRip database.
    Statistics
        Read error                           : 0
        Jitter error (maybe fixed)           : 0
        Retry sector count                   : 0
        Damaged sector count                 : 0

Track 04
    Filename : /Users/BK/Music/Grabbed/Sven-Ake Johanssons Ol'man Rebop Ensemble/F 1998 - Sven-Ake Johanssons Ol'man Rebop Ensemble/02/04 - You Stepped Out Of a Dream.flac
    Pre-gap length : 00:02:00

    Track gain               : 2.23 dB
    Peak                     : 1.000000
    CRC32 hash (test run)    : 9C9D895F
    CRC32 hash               : 9C9D895F
    CRC32 hash (skip zero)   : C8468062
    AccurateRip v1 signature : 6D7D11C6
    AccurateRip v2 signature : FA7AD6F7
        ->Track not present in AccurateRip database.
    Statistics
        Read error                           : 0
        Jitter error (maybe fixed)           : 0
        Retry sector count                   : 0
        Damaged sector count                 : 0

Track 05
    Filename : /Users/BK/Music/Grabbed/Sven-Ake Johanssons Ol'man Rebop Ensemble/F 1998 - Sven-Ake Johanssons Ol'man Rebop Ensemble/02/05 - I've Told Every Little Star.flac
    Pre-gap length : 00:02:00

    Track gain               : 2.74 dB
    Peak                     : 1.000000
    CRC32 hash (test run)    : 7A85D050
    CRC32 hash               : 7A85D050
    CRC32 hash (skip zero)   : 7EF6EED8
    AccurateRip v1 signature : 09BA773E
    AccurateRip v2 signature : 9D19C977
        ->Track not present in AccurateRip database.
    Statistics
        Read error                           : 0
        Jitter error (maybe fixed)           : 0
        Retry sector count                   : 0
        Damaged sector count                 : 0

Track 06
    Filename : /Users/BK/Music/Grabbed/Sven-Ake Johanssons Ol'man Rebop Ensemble/F 1998 - Sven-Ake Johanssons Ol'man Rebop Ensemble/02/06 - Gone with the Wind.flac
    Pre-gap length : 00:02:00

    Track gain               : 2.39 dB
    Peak                     : 1.000000
    CRC32 hash (test run)    : D7DC5A19
    CRC32 hash               : D7DC5A19
    CRC32 hash (skip zero)   : 6E57A5CC
    AccurateRip v1 signature : 5833D512
    AccurateRip v2 signature : 32E0092C
        ->Track not present in AccurateRip database.
    Statistics
        Read error                           : 0
        Jitter error (maybe fixed)           : 0
        Retry sector count                   : 0
        Damaged sector count                 : 0

Track 07
    Filename : /Users/BK/Music/Grabbed/Sven-Ake Johanssons Ol'man Rebop Ensemble/F 1998 - Sven-Ake Johanssons Ol'man Rebop Ensemble/02/07 - Without a Song.flac
    Pre-gap length : 00:02:00

    Track gain               : 2.56 dB
    Peak                     : 0.999969
    CRC32 hash (test run)    : 2E4BB1EA
    CRC32 hash               : 2E4BB1EA
    CRC32 hash (skip zero)   : 6B555F5E
    AccurateRip v1 signature : 3ADB48E0
    AccurateRip v2 signature : C7D9D361
        ->Track not present in AccurateRip database.
    Statistics
        Read error                           : 0
        Jitter error (maybe fixed)           : 0
        Retry sector count                   : 0
        Damaged sector count                 : 0

Track 08
    Filename : /Users/BK/Music/Grabbed/Sven-Ake Johanssons Ol'man Rebop Ensemble/F 1998 - Sven-Ake Johanssons Ol'man Rebop Ensemble/02/08 - the Way You Look Tonight.flac
    Pre-gap length : 00:02:00

    Track gain               : 0.84 dB
    Peak                     : 1.000000
    CRC32 hash (test run)    : 6FEE99AE
    CRC32 hash               : 6FEE99AE
    CRC32 hash (skip zero)   : D3E765D2
    AccurateRip v1 signature : 7EC6F944
    AccurateRip v2 signature : FCBC2A17
        ->Track not present in AccurateRip database.
    Statistics
        Read error                           : 0
        Jitter error (maybe fixed)           : 0
        Retry sector count                   : 0
        Damaged sector count                 : 0

Track 09
    Filename : /Users/BK/Music/Grabbed/Sven-Ake Johanssons Ol'man Rebop Ensemble/F 1998 - Sven-Ake Johanssons Ol'man Rebop Ensemble/02/09 - If I should loose you.flac
    Pre-gap length : 00:02:00

    Track gain               : 0.06 dB
    Peak                     : 1.000000
    CRC32 hash (test run)    : CF805266
    CRC32 hash               : CF805266
    CRC32 hash (skip zero)   : 054B183B
    AccurateRip v1 signature : F9DBAD50
    AccurateRip v2 signature : F42B2EF5
        ->Track not present in AccurateRip database.
    Statistics
        Read error                           : 0
        Jitter error (maybe fixed)           : 0
        Retry sector count                   : 0
        Damaged sector count                 : 0

No errors occurred

End of status report

-----BEGIN XLD SIGNATURE-----
VAsv.wiUyc87OZfbsfV09i20IzAiTD_RktP.wsckKz4nBI4yLnjaisyry6h3cbd.rO29EHkj8KVnmA7u5mXonW3cKC5aUeiq8WPIlTG
-----END XLD SIGNATURE-----
Содержание индексной карты (.CUE)
CD1
TITLE "Sven-Åke Johanssons Ol'man Rebop Ensemble"
PERFORMER "Sven-Åke Johanssons Ol'man Rebop Ensemble"
REM GENRE "Free Jazz"
REM DATE "1998"
REM DISCNUMBER 1
REM TOTALDISCS 2
REM DISCID 7B0DC009
REM REPLAYGAIN_ALBUM_GAIN 1.05 dB
REM REPLAYGAIN_ALBUM_PEAK 1.000000
FILE "01 - They Say That Falling in Love is Wonderful.flac" WAVE
  TRACK 01 AUDIO
    TITLE "They Say That Falling in Love is Wonderful"
    PERFORMER "Sven-Åke Johanssons Ol'man Rebop Ensemble"
    REM COMMENT "Recorded at b-flat, Berlin, Germany, 1998-06-13"
    REM REPLAYGAIN_TRACK_GAIN 1.53 dB
    REM REPLAYGAIN_TRACK_PEAK 0.965363
    INDEX 01 00:00:00
  TRACK 02 AUDIO
    TITLE "I'll Be Seeing You"
    PERFORMER "Sven-Åke Johanssons Ol'man Rebop Ensemble"
    REM COMMENT "Recorded at b-flat, Berlin, Germany, 1998-06-13"
    REM REPLAYGAIN_TRACK_GAIN 3.96 dB
    REM REPLAYGAIN_TRACK_PEAK 1.000000
    INDEX 00 05:29:19
FILE "02 - I'll Be Seeing You.flac" WAVE
    INDEX 01 00:00:00
  TRACK 03 AUDIO
    TITLE "I Only Have Eyes for You"
    PERFORMER "Sven-Åke Johanssons Ol'man Rebop Ensemble"
    REM COMMENT "Recorded at b-flat, Berlin, Germany, 1998-06-13"
    REM REPLAYGAIN_TRACK_GAIN 1.38 dB
    REM REPLAYGAIN_TRACK_PEAK 0.937500
    INDEX 00 08:02:00
FILE "03 - I Only Have Eyes for You.flac" WAVE
    INDEX 01 00:00:00
  TRACK 04 AUDIO
    TITLE "When Will the Blues Leave"
    PERFORMER "Sven-Åke Johanssons Ol'man Rebop Ensemble"
    REM COMMENT "Recorded at b-flat, Berlin, Germany, 1998-06-13"
    REM REPLAYGAIN_TRACK_GAIN 0.15 dB
    REM REPLAYGAIN_TRACK_PEAK 1.000000
    INDEX 00 06:50:47
FILE "04 - When Will the Blues Leave.flac" WAVE
    INDEX 01 00:00:00
  TRACK 05 AUDIO
    TITLE "Joy Spring"
    PERFORMER "Sven-Åke Johanssons Ol'man Rebop Ensemble"
    REM COMMENT "Recorded at b-flat, Berlin, Germany, 1998-06-13"
    REM REPLAYGAIN_TRACK_GAIN 0.52 dB
    REM REPLAYGAIN_TRACK_PEAK 1.000000
    INDEX 00 06:17:54
FILE "05 - Joy Spring.flac" WAVE
    INDEX 01 00:00:00
  TRACK 06 AUDIO
    TITLE "Darn That Dream"
    PERFORMER "Sven-Åke Johanssons Ol'man Rebop Ensemble"
    REM COMMENT "Recorded at b-flat, Berlin, Germany, 1998-06-13"
    REM REPLAYGAIN_TRACK_GAIN 2.85 dB
    REM REPLAYGAIN_TRACK_PEAK 1.000000
    INDEX 00 05:26:47
FILE "06 - Darn That Dream.flac" WAVE
    INDEX 01 00:00:00
  TRACK 07 AUDIO
    TITLE "Rebop"
    PERFORMER "Sven-Åke Johanssons Ol'man Rebop Ensemble"
    REM COMMENT "Recorded at b-flat, Berlin, Germany, 1998-06-13"
    REM REPLAYGAIN_TRACK_GAIN 0.94 dB
    REM REPLAYGAIN_TRACK_PEAK 1.000000
    INDEX 00 08:24:04
FILE "07 - Rebop.flac" WAVE
    INDEX 01 00:00:00
  TRACK 08 AUDIO
    TITLE "You and the Night and the Music"
    PERFORMER "Sven-Åke Johanssons Ol'man Rebop Ensemble"
    REM COMMENT "Recorded at b-flat, Berlin, Germany, 1998-06-13"
    REM REPLAYGAIN_TRACK_GAIN 2.80 dB
    REM REPLAYGAIN_TRACK_PEAK 0.999969
    INDEX 00 04:42:28
FILE "08 - You and the Night and the Music.flac" WAVE
    INDEX 01 00:00:00
  TRACK 09 AUDIO
    TITLE "From This Moment On"
    PERFORMER "Sven-Åke Johanssons Ol'man Rebop Ensemble"
    REM COMMENT "Recorded at b-flat, Berlin, Germany, 1998-06-13"
    REM REPLAYGAIN_TRACK_GAIN -1.82 dB
    REM REPLAYGAIN_TRACK_PEAK 1.000000
    INDEX 00 07:57:20
FILE "09 - From This Moment On.flac" WAVE
    INDEX 01 00:00:00

CD2
TITLE "Sven-Åke Johanssons Ol'man Rebop Ensemble"
PERFORMER "Sven-Åke Johanssons Ol'man Rebop Ensemble"
REM GENRE "Free Jazz"
REM DATE "1998"
REM DISCNUMBER 2
REM TOTALDISCS 2
REM DISCID 810C0909
REM REPLAYGAIN_ALBUM_GAIN 1.60 dB
REM REPLAYGAIN_ALBUM_PEAK 1.000000
FILE "01 - Rebop (theme).flac" WAVE
  TRACK 01 AUDIO
    TITLE "Rebop (theme)"
    PERFORMER "Sven-Åke Johanssons Ol'man Rebop Ensemble"
    REM COMMENT "Recorded at b-flat, Berlin, Germany, 1998-06-13"
    REM REPLAYGAIN_TRACK_GAIN -0.65 dB
    REM REPLAYGAIN_TRACK_PEAK 0.999969
    INDEX 01 00:00:00
  TRACK 02 AUDIO
    TITLE "No Moon At All"
    PERFORMER "Sven-Åke Johanssons Ol'man Rebop Ensemble"
    REM COMMENT "Recorded at b-flat, Berlin, Germany, 1998-06-13"
    REM REPLAYGAIN_TRACK_GAIN 1.51 dB
    REM REPLAYGAIN_TRACK_PEAK 1.000000
    INDEX 00 00:43:50
FILE "02 - No Moon At All.flac" WAVE
    INDEX 01 00:00:00
  TRACK 03 AUDIO
    TITLE "Angel Eyes"
    PERFORMER "Sven-Åke Johanssons Ol'man Rebop Ensemble"
    REM COMMENT "Recorded at b-flat, Berlin, Germany, 1998-06-13"
    REM REPLAYGAIN_TRACK_GAIN 2.90 dB
    REM REPLAYGAIN_TRACK_PEAK 1.000000
    INDEX 00 05:39:13
FILE "03 - Angel Eyes.flac" WAVE
    INDEX 01 00:00:00
  TRACK 04 AUDIO
    TITLE "You Stepped Out Of a Dream"
    PERFORMER "Sven-Åke Johanssons Ol'man Rebop Ensemble"
    REM COMMENT "Recorded at b-flat, Berlin, Germany, 1998-06-13"
    REM REPLAYGAIN_TRACK_GAIN 2.23 dB
    REM REPLAYGAIN_TRACK_PEAK 1.000000
    INDEX 00 08:31:27
FILE "04 - You Stepped Out Of a Dream.flac" WAVE
    INDEX 01 00:00:00
  TRACK 05 AUDIO
    TITLE "I've Told Every Little Star"
    PERFORMER "Sven-Åke Johanssons Ol'man Rebop Ensemble"
    REM COMMENT "Recorded at b-flat, Berlin, Germany, 1998-06-13"
    REM REPLAYGAIN_TRACK_GAIN 2.74 dB
    REM REPLAYGAIN_TRACK_PEAK 1.000000
    INDEX 00 06:23:25
FILE "05 - I've Told Every Little Star.flac" WAVE
    INDEX 01 00:00:00
  TRACK 06 AUDIO
    TITLE "Gone with the Wind"
    PERFORMER "Sven-Åke Johanssons Ol'man Rebop Ensemble"
    REM COMMENT "Recorded at b-flat, Berlin, Germany, 1998-06-13"
    REM REPLAYGAIN_TRACK_GAIN 2.39 dB
    REM REPLAYGAIN_TRACK_PEAK 1.000000
    INDEX 00 04:42:25
FILE "06 - Gone with the Wind.flac" WAVE
    INDEX 01 00:00:00
  TRACK 07 AUDIO
    TITLE "Without a Song"
    PERFORMER "Sven-Åke Johanssons Ol'man Rebop Ensemble"
    REM COMMENT "Recorded at b-flat, Berlin, Germany, 1998-06-13"
    REM REPLAYGAIN_TRACK_GAIN 2.56 dB
    REM REPLAYGAIN_TRACK_PEAK 0.999969
    INDEX 00 05:05:47
FILE "07 - Without a Song.flac" WAVE
    INDEX 01 00:00:00
  TRACK 08 AUDIO
    TITLE "the Way You Look Tonight"
    PERFORMER "Sven-Åke Johanssons Ol'man Rebop Ensemble"
    REM COMMENT "Recorded at b-flat, Berlin, Germany, 1998-06-13"
    REM REPLAYGAIN_TRACK_GAIN 0.84 dB
    REM REPLAYGAIN_TRACK_PEAK 1.000000
    INDEX 00 05:57:15
FILE "08 - the Way You Look Tonight.flac" WAVE
    INDEX 01 00:00:00
  TRACK 09 AUDIO
    TITLE "If I should loose you"
    PERFORMER "Sven-Åke Johanssons Ol'man Rebop Ensemble"
    REM COMMENT "Recorded at b-flat, Berlin, Germany, 1998-06-13"
    REM REPLAYGAIN_TRACK_GAIN 0.06 dB
    REM REPLAYGAIN_TRACK_PEAK 1.000000
    INDEX 00 06:32:33
FILE "09 - If I should loose you.flac" WAVE
    INDEX 01 00:00:00
По всем вопросам пишите личное сообщение пользователю M0p94ok.
15:10
429
Нет комментариев. Ваш будет первым!