Вы используете незарегистрированную версию компонента "Вкладки"!

Поиск

2009 Sara K. - Made in the Shade (2019) {Stockfisch} [24-44,1]

2009 Sara K. - Made in the Shade (2019) {Stockfisch} [24-44,1]
Стили:
Доп. инфо:

Формат записи/Источник записи: [TR24][OF]
Год издания/переиздания диска: 2009/2019
Жанр: Blues, Singer/Songwriter, Jazz
Издатель (лейбл): Stockfisch Records
Продолжительность: 00:48:26
Наличие сканов в содержимом раздачи: Нет

Контейнер: FLAC (*.flac)
Тип рипа: tracks
Разрядность: 24/44,1
Количество каналов: 2.0

Источник (релизер): Stockfisch

Лог проверки качества
foobar2000 1.4.3 / Dynamic Range Meter 1.1.1
log date: 2019-12-03 14:38:55

--------------------------------------------------------------------------------
Analyzed: Sara K. / Made in the Shade
--------------------------------------------------------------------------------

DR         Peak         RMS     Duration Track
--------------------------------------------------------------------------------
DR7       -0.52 dB    -9.81 dB      4:27 01-What's a Little More Rain
DR6       -0.46 dB    -8.50 dB      4:27 02-After There's a Blizzard
DR7       -1.06 dB   -10.13 dB      3:38 03-Aura of Blade
DR7       -0.52 dB    -9.60 dB      3:45 04-Gypsy Eyes
DR7       -0.55 dB    -8.98 dB      3:14 05-Your Name
DR7       -0.57 dB    -9.12 dB      3:29 06-Watching You Fall into Sleep
DR7       -0.55 dB    -9.49 dB      3:56 07-Manchild
DR7       -0.47 dB    -9.26 dB      3:58 08-Made in the Shade
DR7        0.00 dB    -8.85 dB      3:21 09-Sizzlin'
DR7       -0.55 dB    -9.33 dB      5:20 10-Don't Know You from Somewhere?
DR8       -0.10 dB    -9.72 dB      4:15 11-When I Didn't Care
DR6       -0.44 dB    -8.40 dB      4:36 12-There It Is
--------------------------------------------------------------------------------

Number of tracks:  12
Official DR value: DR7

Samplerate:        44100 Hz
Channels:          2
Bits per sample:   24
Bitrate:           1442 kbps
Codec:             FLAC
================================================================================
Any questions - support@pro-jazz.com. Есть вопросы - support@pro-jazz.com
00:35
234
Нет комментариев. Ваш будет первым!