Поиск

2009 Lynne Arriale - Nuance: The Bennett Studio Sessions (2016) {In+Out} [24-44.1]

2009 Lynne Arriale - Nuance: The Bennett Studio Sessions (2016) {In+Out} [24-44.1]
Стили:
Дата записи диска:
1 августа - 4 августа 2008
Дата издания диска:
5 декабря 2009
Издатель (лейбл):
Номер по каталогу:
IOR CD 77089-2
Носитель:
WEB
Формат:
PCM
Тип рипа:
tracks
Контейнер:
FLAC (*.flac)
Количество каналов:
2.0
Разрядность/ЧД:
24/44,1
Битрейт аудио:
lossless
Время звучания:
00:54:59
Наличие сканов:
только обложка

Треклист:

01 - Wrapped Around Your Finger 04:44
02 - I Mean You 05:02
03 - Longing 03:57
04 - Crawfish & Gumbo 04:03
05 - Ballad of the Sad Young Men 07:38
06 - Carry On 05:21
07 - La Noche 05:36
08 - Yada Yada Yada 06:21
09 - I Hear a Rhapsody 04:24
10 - A Night in Tunisia 05:36
11 - A Gentle Soul 02:17

Состав:
  •     Bass – George Mraz
  •     Drums – Anthony Pinciotti
  •     Engineer – Alessandro V. Perrotta
  •     Executive-Producer – Jana Herzen
  •     Liner Notes – Bob Blumenthal
  •     Mastered By – Joe Lambert
  •     Mixed By – Alessandro Perrotta (tracks: Alessandro V. Perrotta), Suzi Reynolds
  •     Piano, Producer – Lynne Arriale
  •     Trumpet, Flugelhorn – Randy Brecker
Лог проверки качества
foobar2000 1.4.3 / Dynamic Range Meter 1.1.1
log date: 2021-12-29 19:04:50
--------------------------------------------------------------------------------
Analyzed: Lynne Arriale / Nuance
--------------------------------------------------------------------------------
DR         Peak         RMS     Duration Track
--------------------------------------------------------------------------------
DR8       -1.05 dB   -12.93 dB      4:44 01-Wrapped Around Your Finger
DR11      -1.05 dB   -13.53 dB      5:02 02-I Mean You
DR11      -2.38 dB   -16.89 dB      3:57 03-Longing
DR11      -1.12 dB   -14.05 dB      4:04 04-Crawfish & Gumbo
DR12      -1.82 dB   -17.78 dB      7:39 05-Ballad of the Sad Young Men
DR11      -1.05 dB   -13.66 dB      5:21 06-Carry On
DR11      -1.06 dB   -15.43 dB      5:36 07-La Noche
DR12      -1.05 dB   -15.02 dB      6:22 08-Yada Yada Yada
DR12      -1.05 dB   -16.61 dB      4:24 09-I Hear a Rhapsody
DR10      -1.06 dB   -12.84 dB      5:37 10-A Night in Tunisia
DR12      -3.44 dB   -19.54 dB      2:18 11-A Gentle Soul
--------------------------------------------------------------------------------
Number of tracks:  11
Official DR value: DR11
Samplerate:        44100 Hz
Channels:          2
Bits per sample:   24
Bitrate:           1361 kbps
Codec:             FLAC
================================================================================
13:10
346
Нет комментариев. Ваш будет первым!