Поиск

2009 Joey DeFrancesco - Snapshot {HighNote HCD 7199} [CD]

2009 Joey DeFrancesco - Snapshot {HighNote HCD 7199} [CD]
Издатель (лейбл):
Треклист:
Дата записи: 5 марта 2009
Место записи:
  • Kerr Cultural Center, Scottsdale, AZ
  • Tempest Recording, Scottsdale, AZ
Дата издания: 20 октября 2009
Носитель: CD
Страна-производитель диска: США
Год издания: 2009
Издатель (лейбл): HighNote
Аудиокодек: FLAC (*.flac)
Тип рипа: tracks+.cue
Битрейт аудио: lossless
Продолжительность: 59:35
Источник (релизер): mdb417 (what)
Наличие сканов в содержимом раздачи: нет
Треклист:
01. Eighty One (Carter) - 7:58
02. The End of a Love Affair (Redding) - 9:56
03. Introductions - 2:45
04. Ode to Angela (Land) - 7:28
05. Songline (Bollenback) - 6:20
06. You Don't Know Me (Arnold-Walker) - 7:16
07. Fly Me to the Moon (Howard) - 8:32
08. Whichole - 9:20
 
Лог создания рипа
X Lossless Decoder version 20120908 (141.1)
XLD extraction logfile from 2012-09-19 17:46:49 -0400
Joey DeFrancesco / Snapshot
Used drive : MATSHITA DVD-R   UJ-8A8 (revision HB14)
Ripper mode             : XLD Secure Ripper
Disable audio cache     : OK for the drive with a cache less than 1375KiB
Make use of C2 pointers : NO
Read offset correction  : 102
Max retry count         : 100
Gap status              : Analyzed, Appended
TOC of the extracted CD
     Track |   Start  |  Length  | Start sector | End sector
    ---------------------------------------------------------
        1  | 00:00:00 | 07:57:74 |         0    |    35848
        2  | 07:57:74 | 09:55:44 |     35849    |    80517
        3  | 17:53:43 | 02:44:45 |     80518    |    92862
        4  | 20:38:13 | 07:28:28 |     92863    |   126490
        5  | 28:06:41 | 06:19:42 |    126491    |   154957
        6  | 34:26:08 | 07:16:09 |    154958    |   187666
        7  | 41:42:17 | 08:32:27 |    187667    |   226093
        8  | 50:14:44 | 09:20:02 |    226094    |   268095
AccurateRip Summary
    Disc not found in AccurateRip DB.
All Tracks
    Album gain               : -6.14 dB
    Peak                     : 1.000000
    Statistics
        Read error                           : 0
        Jitter error (maybe fixed)           : 0
        Retry sector count                   : 0
        Damaged sector count                 : 0
Track 01
    Filename : /Users/mdbrafman/Music/rips/Joey DeFrancesco - Snapshot (2009) [FLAC]/01 Eighty One.flac
    Pre-gap length : 00:02:00
    Track gain               : -6.53 dB
    Peak                     : 1.000000
    CRC32 hash (test run)    : FB27ED1F
    CRC32 hash               : FB27ED1F
    CRC32 hash (skip zero)   : B7513DAC
    AccurateRip v1 signature : 404FD602
    AccurateRip v2 signature : 06C74DC5
        ->Track not present in AccurateRip database.
    Statistics
        Read error                           : 0
        Jitter error (maybe fixed)           : 0
        Retry sector count                   : 0
        Damaged sector count                 : 0
Track 02
    Filename : /Users/mdbrafman/Music/rips/Joey DeFrancesco - Snapshot (2009) [FLAC]/02 The End of a Love Affair.flac
    Track gain               : -6.22 dB
    Peak                     : 1.000000
    CRC32 hash (test run)    : 5249E256
    CRC32 hash               : 5249E256
    CRC32 hash (skip zero)   : 0870FCE0
    AccurateRip v1 signature : E2977D73
    AccurateRip v2 signature : 443F8BC8
        ->Track not present in AccurateRip database.
    Statistics
        Read error                           : 0
        Jitter error (maybe fixed)           : 0
        Retry sector count                   : 0
        Damaged sector count                 : 0
Track 03
    Filename : /Users/mdbrafman/Music/rips/Joey DeFrancesco - Snapshot (2009) [FLAC]/03 Introductions.flac
    Track gain               : 5.41 dB
    Peak                     : 1.000000
    CRC32 hash (test run)    : A3F2DD55
    CRC32 hash               : A3F2DD55
    CRC32 hash (skip zero)   : 301203A0
    AccurateRip v1 signature : 40680F74
    AccurateRip v2 signature : FEA4E430
        ->Track not present in AccurateRip database.
    Statistics
        Read error                           : 0
        Jitter error (maybe fixed)           : 0
        Retry sector count                   : 0
        Damaged sector count                 : 0
Track 04
    Filename : /Users/mdbrafman/Music/rips/Joey DeFrancesco - Snapshot (2009) [FLAC]/04 Ode to Angela.flac
    Track gain               : -5.30 dB
    Peak                     : 0.986053
    CRC32 hash (test run)    : FE63344E
    CRC32 hash               : FE63344E
    CRC32 hash (skip zero)   : F48F6F3B
    AccurateRip v1 signature : EB9B6763
    AccurateRip v2 signature : 329A3545
        ->Track not present in AccurateRip database.
    Statistics
        Read error                           : 0
        Jitter error (maybe fixed)           : 0
        Retry sector count                   : 0
        Damaged sector count                 : 0
Track 05
    Filename : /Users/mdbrafman/Music/rips/Joey DeFrancesco - Snapshot (2009) [FLAC]/05 Songline.flac
    Track gain               : -5.54 dB
    Peak                     : 0.996613
    CRC32 hash (test run)    : 4B29EE37
    CRC32 hash               : 4B29EE37
    CRC32 hash (skip zero)   : BE7712EC
    AccurateRip v1 signature : 0D4CA93D
    AccurateRip v2 signature : D420ADD3
        ->Track not present in AccurateRip database.
    Statistics
        Read error                           : 0
        Jitter error (maybe fixed)           : 0
        Retry sector count                   : 0
        Damaged sector count                 : 0
Track 06
    Filename : /Users/mdbrafman/Music/rips/Joey DeFrancesco - Snapshot (2009) [FLAC]/06 You Don't Know Me.flac
    Track gain               : -7.04 dB
    Peak                     : 1.000000
    CRC32 hash (test run)    : D3282E04
    CRC32 hash               : D3282E04
    CRC32 hash (skip zero)   : 1DDF9559
    AccurateRip v1 signature : 0950A2A5
    AccurateRip v2 signature : 0972F910
        ->Track not present in AccurateRip database.
    Statistics
        Read error                           : 0
        Jitter error (maybe fixed)           : 0
        Retry sector count                   : 0
        Damaged sector count                 : 0
Track 07
    Filename : /Users/mdbrafman/Music/rips/Joey DeFrancesco - Snapshot (2009) [FLAC]/07 Fly Me To The Moon.flac
    Track gain               : -5.95 dB
    Peak                     : 0.999603
    CRC32 hash (test run)    : 38920679
    CRC32 hash               : 38920679
    CRC32 hash (skip zero)   : C1869757
    AccurateRip v1 signature : 7D58D3BA
    AccurateRip v2 signature : 60E549AE
        ->Track not present in AccurateRip database.
    Statistics
        Read error                           : 0
        Jitter error (maybe fixed)           : 0
        Retry sector count                   : 0
        Damaged sector count                 : 0
Track 08
    Filename : /Users/mdbrafman/Music/rips/Joey DeFrancesco - Snapshot (2009) [FLAC]/08 Whichole.flac
    Track gain               : -6.10 dB
    Peak                     : 0.982880
    CRC32 hash (test run)    : FFD43059
    CRC32 hash               : FFD43059
    CRC32 hash (skip zero)   : 8CA14F72
    AccurateRip v1 signature : 447AF876
    AccurateRip v2 signature : 2A03F546
        ->Track not present in AccurateRip database.
    Statistics
        Read error                           : 0
        Jitter error (maybe fixed)           : 0
        Retry sector count                   : 0
        Damaged sector count                 : 0
No errors occurred
End of status report
 
 
Содержание индексной карты (.CUE)
TITLE "Snapshot: The Original Trio"
PERFORMER "Joey DeFrancesco"
REM GENRE "Jazz"
REM DATE "2009"
REM DISCID 660DF608
REM REPLAYGAIN_ALBUM_GAIN -6.14 dB
REM REPLAYGAIN_ALBUM_PEAK 1.000000
FILE "01 - Eighty One.flac" WAVE
  TRACK 01 AUDIO
    TITLE "Eighty One"
    ISRC USHNR0919901
    REM REPLAYGAIN_TRACK_GAIN -6.53 dB
    REM REPLAYGAIN_TRACK_PEAK 1.000000
    INDEX 01 00:00:00
FILE "02 - The End of a Love Affair.flac" WAVE
  TRACK 02 AUDIO
    TITLE "The End of a Love Affair"
    ISRC USHNR0919902
    REM REPLAYGAIN_TRACK_GAIN -6.22 dB
    REM REPLAYGAIN_TRACK_PEAK 1.000000
    INDEX 01 00:00:00
FILE "03 - Introductions.flac" WAVE
  TRACK 03 AUDIO
    TITLE "Introductions"
    ISRC USHNR0919903
    REM REPLAYGAIN_TRACK_GAIN 5.41 dB
    REM REPLAYGAIN_TRACK_PEAK 1.000000
    INDEX 01 00:00:00
FILE "04 - Ode to Angela.flac" WAVE
  TRACK 04 AUDIO
    TITLE "Ode to Angela"
    ISRC USHNR0919904
    REM REPLAYGAIN_TRACK_GAIN -5.30 dB
    REM REPLAYGAIN_TRACK_PEAK 0.986053
    INDEX 01 00:00:00
FILE "05 - Songline.flac" WAVE
  TRACK 05 AUDIO
    TITLE "Songline"
    ISRC USHNR0919905
    REM REPLAYGAIN_TRACK_GAIN -5.54 dB
    REM REPLAYGAIN_TRACK_PEAK 0.996613
    INDEX 01 00:00:00
FILE "06 - You Don't Know Me.flac" WAVE
  TRACK 06 AUDIO
    TITLE "You Don't Know Me"
    ISRC USHNR0919906
    REM REPLAYGAIN_TRACK_GAIN -7.04 dB
    REM REPLAYGAIN_TRACK_PEAK 1.000000
    INDEX 01 00:00:00
FILE "07 - Fly Me to the Moon.flac" WAVE
  TRACK 07 AUDIO
    TITLE "Fly Me to the Moon"
    ISRC USHNR0919907
    REM REPLAYGAIN_TRACK_GAIN -5.95 dB
    REM REPLAYGAIN_TRACK_PEAK 0.999603
    INDEX 01 00:00:00
FILE "08 - Whichole.flac" WAVE
  TRACK 08 AUDIO
    TITLE "Whichole"
    ISRC USHNR0919908
    REM REPLAYGAIN_TRACK_GAIN -6.10 dB
    REM REPLAYGAIN_TRACK_PEAK 0.982880
    INDEX 01 00:00:00
 
 
Отчет CUETools
[CUETools log; Date: 21.04.2014 21:40:31; Version: 2.1.4]
[CTDB TOCID: ABi__Gvlp793goIxQ4Bs6ne1ads-] found.
Track | CTDB Status
  1   | (3/3) Accurately ripped
  2   | (3/3) Accurately ripped
  3   | (3/3) Accurately ripped
  4   | (3/3) Accurately ripped
  5   | (3/3) Accurately ripped
  6   | (3/3) Accurately ripped
  7   | (3/3) Accurately ripped
  8   | (3/3) Accurately ripped
[AccurateRip ID: 0011e438-0076bf31-660df608] found.
Track   [  CRC   |   V2   ] Status
 01     [404fd602|06c74dc5] (03+05/10) Accurately ripped
 02     [e2977d73|443f8bc8] (03+05/10) Accurately ripped
 03     [40680f74|fea4e430] (03+05/10) Accurately ripped
 04     [eb9b6763|329a3545] (03+05/10) Accurately ripped
 05     [0d4ca93d|d420add3] (03+05/10) Accurately ripped
 06     [0950a2a5|0972f910] (03+05/10) Accurately ripped
 07     [7d58d3ba|60e549ae] (03+05/10) Accurately ripped
 08     [447af876|2a03f546] (03+05/10) Accurately ripped
Offsetted by -48:
 01     [6c53b9ea] (02/10) Accurately ripped
 02     [53834062] (02/10) Accurately ripped
 03     [416f21ad] (02/10) Accurately ripped
 04     [aaaeef6e] (02/10) Accurately ripped
 05     [9232dc72] (02/10) Accurately ripped
 06     [4617f681] (02/10) Accurately ripped
 07     [7cde98fa] (02/10) Accurately ripped
 08     [18994712] (02/10) Accurately ripped
Track Peak [ CRC32  ] [W/O NULL]
 --  100,0 [3E3B794A] [E69402B4]
 01  100,0 [FB27ED1F] [B7513DAC]
 02  100,0 [5249E256] [0870FCE0]
 03  100,0 [A3F2DD55] [301203A0]
 04   98,6 [FE63344E] [F48F6F3B]
 05   99,6 [4B29EE37] [BE7712EC]
 06  100,0 [D3282E04] [1DDF9559]
 07   99,9 [38920679] [C1869757]
 08   98,2 [FFD43059] [8CA14F72]
Приватный:
Нет (DHT включён)
Размер:
388.14 Мб (406,991,850 байт) » файлов: 15
Участники:
0 раздают, 0 качают (0 участников всего)
Внешние участники:
3 раздают, 1 качают (4 участников всего) [ Обновить ]
Никого нет на раздаче - пишите личное сообщение M0p94ok
No seeders - write personal message to M0p94ok
08:43
79
Нет комментариев. Ваш будет первым!