Поиск

2008 VA - Blue Note Explosion: African Rhythms {EMI, Blue Note 50999-521418-0-5} [2CD]

2008 VA - Blue Note Explosion: African Rhythms {EMI, Blue Note 50999-521418-0-5} [2CD]
Треклист:

Disc 1
1-1 – Art Blakey And The Jazz Messengers: Africaine
1-2 – McCoy Tyner: Man From Tanganyika
1-3 – Lee Morgan: Afreaka
1-4 – Jackie McLean: Appointment In Ghana
1-5 – Art Blakey: The Feast
1-6 – Wayne Shorter: Black Nile
1-7 – Horace Parlan: Home Is Africa
1-8 – Horace Silver: Safari
1-9 – Solomon Ilori And His Afro-Drum Ensemble: Yaba E
Disc 2
2-1 – Donald Byrd: Kofi
2-2 – Wayne Shorter: Angola
2-3 – Lee Morgan: Mr. Kenyatta
2-4 – Solomon Ilori And His Afro-Drum Ensemble: Gbogbo Omo Ibile (Going Home)
2-5 – Freddie Hubbard: Cunga Black
2-6 – Blue Mitchell: Swahili Suite
2-7 – Candido: Ghana Spice Pt. 1
2-8 – Art Blakey: Abdallah's Delight

Жанр: Jazz
Носитель: CD
Страна-производитель диска (релиза): EU
Год издания: 2008
Издатель (лейбл): EMI Records, Blue Note
Номер по каталогу: 50999-521418-0-5
Страна исполнителя (группы): USA
Аудиокодек: FLAC (*.flac)
Тип рипа: image+.cue
Битрейт аудио: lossless
Продолжительность: 01:04:42 + 00:55:59
Источник (релизер): nkomissar
Наличие сканов в содержимом раздачи: да

 
Лог создания рипа
 
Disc 01
Exact Audio Copy V1.3 from 2. September 2016
Отчёт EAC об извлечении, выполненном 25. сентября 2018, 13:03
Various Artists / African Rhythms - CD1
Дисковод: hp      DVDRAM GT80N   Adapter: 1  ID: 0
Режим чтения                 : Достоверность
Использование точного потока : Да
Отключение кэша аудио        : Да
Использование указателей C2  : Нет
Коррекция смещения при чтении                     : 102
Способность читать области Lead-in и Lead-out     : Нет
Заполнение пропущенных сэмплов тишиной            : Да
Удаление блоков с тишиной в начале и конце        : Нет
При вычислениях CRC использовались нулевые сэмплы : Да
Интерфейс                                         : Встроенный Win32-интерфейс для Win NT/2000
Выходной формат          : Пользовательский кодировщик
Выбранный битрейт        : 128 kBit/s
Качество                 : Высокий
Добавление ID3-тега      : Нет
Утилита сжатия           : C:\Program Files (x86)\Exact Audio Copy\Flac\flac.exe
Дополнительные параметры : -V -8 -T "Date=%year%" -T "Genre=%genre%" %source%
TOC извлечённого CD
     Трек |   Старт  | Длительность | Начальный сектор | Конечный сектор
    ---------------------------------------------------------------------
       1  |  0:00.00 |    7:59.37   |           0      |      35961
       2  |  7:59.37 |    6:52.69   |       35962      |      66930
       3  | 14:52.31 |    8:04.15   |       66931      |     103245
       4  | 22:56.46 |    6:58.53   |      103246      |     134648
       5  | 29:55.24 |    8:52.47   |      134649      |     174595
       6  | 38:47.71 |    6:26.68   |      174596      |     203613
       7  | 45:14.64 |    8:46.73   |      203614      |     243136
       8  | 54:01.62 |    5:10.25   |      243137      |     266411
       9  | 59:12.12 |    5:30.72   |      266412      |     291233
Характеристики диапазона извлечения и сообщения об ошибках
Выбранный диапазон
     Имя файла D:\Music\Various Artists - African Rhythms - CD1.wav
     Пиковый уровень 100.0 %
     Скорость извлечения 4.2 X
     Качество диапазона 100.0 %
     CRC теста 7B487FE3
     CRC копии 7B487FE3
     Копирование... OK
Ошибок не произошло
AccurateRip: сводка
Трек  1  отсутствует в базе данных
Трек  2  отсутствует в базе данных
Трек  3  отсутствует в базе данных
Трек  4  отсутствует в базе данных
Трек  5  отсутствует в базе данных
Трек  6  отсутствует в базе данных
Трек  7  отсутствует в базе данных
Трек  8  отсутствует в базе данных
Трек  9  отсутствует в базе данных
Ни одного трека нет в базе AccurateRip
Конец отчёта
==== Контрольная сумма отчёта 7F55B78FC72C1D3831504DB19834FF7D7C611947EFDC7EEFB613A54EB585B1B7 ====
 
Disc 02
Exact Audio Copy V1.3 from 2. September 2016
Отчёт EAC об извлечении, выполненном 25. сентября 2018, 14:33
Various Artists / African Rhythms - CD2
Дисковод: hp      DVDRAM GT80N   Adapter: 1  ID: 0
Режим чтения                 : Достоверность
Использование точного потока : Да
Отключение кэша аудио        : Да
Использование указателей C2  : Нет
Коррекция смещения при чтении                     : 102
Способность читать области Lead-in и Lead-out     : Нет
Заполнение пропущенных сэмплов тишиной            : Да
Удаление блоков с тишиной в начале и конце        : Нет
При вычислениях CRC использовались нулевые сэмплы : Да
Интерфейс                                         : Встроенный Win32-интерфейс для Win NT/2000
Выходной формат          : Пользовательский кодировщик
Выбранный битрейт        : 128 kBit/s
Качество                 : Высокий
Добавление ID3-тега      : Нет
Утилита сжатия           : C:\Program Files (x86)\Exact Audio Copy\Flac\flac.exe
Дополнительные параметры : -V -8 -T "Date=%year%" -T "Genre=%genre%" %source%
TOC извлечённого CD
     Трек |   Старт  | Длительность | Начальный сектор | Конечный сектор
    ---------------------------------------------------------------------
       1  |  0:00.00 |    9:32.50   |           0      |      42949
       2  |  9:32.50 |    4:50.57   |       42950      |      64756
       3  | 14:23.32 |    8:43.66   |       64757      |     104047
       4  | 23:07.23 |   11:49.37   |      104048      |     157259
       5  | 34:56.60 |    5:15.05   |      157260      |     180889
       6  | 40:11.65 |    2:53.63   |      180890      |     193927
       7  | 43:05.53 |    3:06.47   |      193928      |     207924
       8  | 46:12.25 |    9:47.06   |      207925      |     251955
Характеристики диапазона извлечения и сообщения об ошибках
Выбранный диапазон
     Имя файла D:\Music\Various Artists - African Rhythms - CD2.wav
     Пиковый уровень 97.9 %
     Скорость извлечения 4.2 X
     Качество диапазона 100.0 %
     CRC теста 0971DFC1
     CRC копии 0971DFC1
     Копирование... OK
Ошибок не произошло
AccurateRip: сводка
Трек  1  отсутствует в базе данных
Трек  2  отсутствует в базе данных
Трек  3  отсутствует в базе данных
Трек  4  отсутствует в базе данных
Трек  5  отсутствует в базе данных
Трек  6  отсутствует в базе данных
Трек  7  отсутствует в базе данных
Трек  8  отсутствует в базе данных
Ни одного трека нет в базе AccurateRip
Конец отчёта
==== Контрольная сумма отчёта A6F145835A20FA953A9AA45F643BF52F1B6D6FB5D00194B09F4036C3674D3953 ====
 
Содержание индексной карты (.CUE)
 
Disc 01
REM GENRE Jazz
REM DATE 2008
REM DISCID 8C0F2B09
REM COMMENT "ExactAudioCopy v1.3"
PERFORMER "Various Artists"
TITLE "African Rhythms - CD1"
REM COMPOSER ""
FILE "Various Artists - African Rhythms - CD1.flac" WAVE
  TRACK 01 AUDIO
    TITLE "Africaine"
    PERFORMER "Art Blakey & The Jazz Messengers"
    REM COMPOSER ""
    INDEX 01 00:00:00
  TRACK 02 AUDIO
    TITLE "Man From Tanganyika"
    PERFORMER "Mccoy Tyner"
    REM COMPOSER ""
    INDEX 00 07:57:54
    INDEX 01 07:59:37
  TRACK 03 AUDIO
    TITLE "Afreaka"
    PERFORMER "Lee Morgan"
    REM COMPOSER ""
    INDEX 00 14:50:48
    INDEX 01 14:52:31
  TRACK 04 AUDIO
    TITLE "Apointment In Ghana"
    PERFORMER "Jackie Mclean"
    REM COMPOSER ""
    INDEX 00 22:54:63
    INDEX 01 22:56:46
  TRACK 05 AUDIO
    TITLE "The Feast"
    PERFORMER "Art Blakey"
    REM COMPOSER ""
    INDEX 00 29:53:41
    INDEX 01 29:55:24
  TRACK 06 AUDIO
    TITLE "Black Nile"
    PERFORMER "Wayne Shorter"
    REM COMPOSER ""
    INDEX 00 38:46:13
    INDEX 01 38:47:71
  TRACK 07 AUDIO
    TITLE "Home Is Africa"
    PERFORMER "Horace Parlan"
    REM COMPOSER ""
    INDEX 00 45:13:06
    INDEX 01 45:14:64
  TRACK 08 AUDIO
    TITLE "Safari"
    PERFORMER "Horace Silver"
    REM COMPOSER ""
    INDEX 00 54:00:04
    INDEX 01 54:01:62
  TRACK 09 AUDIO
    TITLE "Yaba E"
    PERFORMER "Solomon Ilori And His Afro Drum Ensemble"
    REM COMPOSER ""
    INDEX 00 59:10:29
    INDEX 01 59:12:12
 
Disc 02
REM GENRE Jazz
REM DATE 2008
REM DISCID 810D1F08
REM COMMENT "ExactAudioCopy v1.3"
PERFORMER "Various Artists"
TITLE "African Rhythms - CD2"
REM COMPOSER ""
FILE "Various Artists - African Rhythms - CD2.flac" WAVE
  TRACK 01 AUDIO
    TITLE "Kofi"
    PERFORMER "Donald Byrd"
    REM COMPOSER ""
    INDEX 01 00:00:00
  TRACK 02 AUDIO
    TITLE "Angola"
    PERFORMER "Wayne Shorter"
    REM COMPOSER ""
    INDEX 00 09:30:67
    INDEX 01 09:32:50
  TRACK 03 AUDIO
    TITLE "Mr Kenyatta"
    PERFORMER "Lee Morgan"
    REM COMPOSER ""
    INDEX 00 14:21:49
    INDEX 01 14:23:32
  TRACK 04 AUDIO
    TITLE "Gbogbo Omo Ibile (Going Home)"
    PERFORMER "Solomon Ilori And His Afro Drum Ensemble"
    REM COMPOSER ""
    INDEX 00 23:05:40
    INDEX 01 23:07:23
  TRACK 05 AUDIO
    TITLE "Cunga Black"
    PERFORMER "Freddie Hubbard"
    REM COMPOSER ""
    INDEX 00 34:55:02
    INDEX 01 34:56:60
  TRACK 06 AUDIO
    TITLE "Swahili Suite"
    PERFORMER "Blue Mitchell"
    REM COMPOSER ""
    INDEX 00 40:10:07
    INDEX 01 40:11:65
  TRACK 07 AUDIO
    TITLE "Ghana Spice Pt 1"
    PERFORMER "Candido"
    REM COMPOSER ""
    INDEX 00 43:03:70
    INDEX 01 43:05:53
  TRACK 08 AUDIO
    TITLE "Abdallah's Delight"
    PERFORMER "Art Blakey"
    REM COMPOSER ""
    INDEX 00 46:10:42
    INDEX 01 46:12:25
По всем вопросам пишите личное сообщение пользователю M0p94ok.
22:25
324
Нет комментариев. Ваш будет первым!