Поиск

2008 The James Moody and Hank Jones Quartet - Our Delight {IPO} [CD]

2008 The James Moody and Hank Jones Quartet - Our Delight {IPO} [CD]
Треклист:

01 Our Delight
02 Birk's Works
03 Con Alma
04 Lady Bird
05 Eternal Triangle
06 Body and Soul
07 Good Bait
08 Darben the Red Foxx
09 Soul Trane
10 Woody 'N You
11 Old Folks
12 Moody's Groove

Recorded at Sear Sound Studios, New York City on June 28 and 29, 2006

Состав:
  • Todd Coolman    Bass, Liner Notes
  • Hank Jones    Piano
  • James Moody    Flute, Sax (Tenor)
  • Adam Nussbaum    Drums
  • Michael Patterson    Audio Production
  • Jonathan Rosenberg    Audio Engineer

Жанр: Post-Bop
Носитель: CD
Страна-производитель диска (релиза): USA
Год издания: 2008
Издатель (лейбл): IPO
Страна исполнителя (группы): USA
Аудиокодек: FLAC (*.flac)
Тип рипа: image+.cue
Битрейт аудио: lossless
Продолжительность: 1:17:42
Источник: собственный рип
Наличие сканов в содержимом раздачи: да

Лог создания рипа
Exact Audio Copy V1.0 beta 6 from 9. April 2015

EAC extraction logfile from 27. January 2019, 17:07

The James Moody and Hank Jones Quartet / Our Delight

Used drive  : MATSHITADVD-RAM UJ8HC   Adapter: 0  ID: 0

Read mode               : Secure
Utilize accurate stream : Yes
Defeat audio cache      : Yes
Make use of C2 pointers : No

Read offset correction                      : 6
Overread into Lead-In and Lead-Out          : No
Fill up missing offset samples with silence : Yes
Delete leading and trailing silent blocks   : No
Null samples used in CRC calculations       : Yes
Used interface                              : Installed external ASPI interface

Used output format              : User Defined Encoder
Selected bitrate                : 128 kBit/s
Quality                         : High
Add ID3 tag                     : No
Command line compressor         : C:\Program Files (x86)\Exact Audio Copy\Flac\flac.exe
Additional command line options : -V -8 -T "Date=%year%" -T "Genre=%genre%" %source%

TOC of the extracted CD

     Track |   Start  |  Length  | Start sector | End sector
    ---------------------------------------------------------
        1  |  0:00.00 |  5:29.44 |         0    |    24718
        2  |  5:29.44 |  6:57.05 |     24719    |    55998
        3  | 12:26.49 |  5:31.25 |     55999    |    80848
        4  | 17:57.74 |  6:50.64 |     80849    |   111662
        5  | 24:48.63 |  5:17.01 |    111663    |   135438
        6  | 30:05.64 |  7:34.65 |    135439    |   169553
        7  | 37:40.54 |  6:54.12 |    169554    |   200615
        8  | 44:34.66 |  6:08.56 |    200616    |   228271
        9  | 50:43.47 |  9:28.71 |    228272    |   270942
       10  | 60:12.43 |  5:21.12 |    270943    |   295029
       11  | 65:33.55 |  6:40.05 |    295030    |   325034
       12  | 72:13.60 |  5:28.03 |    325035    |   349637

Range status and errors

Selected range

     Filename E:\EAC\The James Moody and Hank Jones Quartet - Our Delight.wav

     Peak level 99.9 %
     Extraction speed 5.1 X
     Range quality 99.9 %
     Test CRC 5069669C
     Copy CRC 5069669C
     Copy OK

No errors occurred

AccurateRip summary

Track  1  accurately ripped (confidence 7)  [91BCAE38]  (AR v2)
Track  2  accurately ripped (confidence 8)  [1743F523]  (AR v2)
Track  3  accurately ripped (confidence 8)  [71CEB13E]  (AR v2)
Track  4  accurately ripped (confidence 8)  [C9AFA8A6]  (AR v2)
Track  5  accurately ripped (confidence 8)  [2DFAED03]  (AR v2)
Track  6  accurately ripped (confidence 8)  [D6EEDE3C]  (AR v2)
Track  7  accurately ripped (confidence 8)  [50D95C3E]  (AR v2)
Track  8  accurately ripped (confidence 8)  [B64C3785]  (AR v2)
Track  9  accurately ripped (confidence 7)  [8CAB52E8]  (AR v2)
Track 10  accurately ripped (confidence 7)  [9F1F93A6]  (AR v2)
Track 11  accurately ripped (confidence 7)  [7B55C092]  (AR v2)
Track 12  accurately ripped (confidence 7)  [53B2C76B]  (AR v2)

All tracks accurately ripped

End of status report

==== Log checksum 20C0FE372A37998A79D422AD5EE92C9463E7330F152665C712684217DB109E0C ====
Содержание индексной карты (.CUE)
REM GENRE Jazz
REM DATE 2008
REM DISCID A912350C
REM COMMENT "ExactAudioCopy v1.0b6"
PERFORMER "The James Moody and Hank Jones Quartet"
TITLE "Our Delight"
FILE "The James Moody and Hank Jones Quartet - Our Delight.flac" WAVE
  TRACK 01 AUDIO
    TITLE "Our Delight"
    PERFORMER "The James Moody and Hank Jones Quartet"
    INDEX 01 00:00:00
  TRACK 02 AUDIO
    TITLE "Birk's Works"
    PERFORMER "The James Moody and Hank Jones Quartet"
    INDEX 00 05:26:44
    INDEX 01 05:29:44
  TRACK 03 AUDIO
    TITLE "Con Alma"
    PERFORMER "The James Moody and Hank Jones Quartet"
    INDEX 00 12:23:49
    INDEX 01 12:26:49
  TRACK 04 AUDIO
    TITLE "Lady Bird"
    PERFORMER "The James Moody and Hank Jones Quartet"
    INDEX 00 17:54:74
    INDEX 01 17:57:74
  TRACK 05 AUDIO
    TITLE "Eternal Triangle"
    PERFORMER "The James Moody and Hank Jones Quartet"
    INDEX 00 24:45:63
    INDEX 01 24:48:63
  TRACK 06 AUDIO
    TITLE "Body and Soul"
    PERFORMER "The James Moody and Hank Jones Quartet"
    INDEX 00 30:02:64
    INDEX 01 30:05:64
  TRACK 07 AUDIO
    TITLE "Good Bait"
    PERFORMER "The James Moody and Hank Jones Quartet"
    INDEX 00 37:37:54
    INDEX 01 37:40:54
  TRACK 08 AUDIO
    TITLE "Darben the Red Foxx"
    PERFORMER "The James Moody and Hank Jones Quartet"
    INDEX 00 44:31:66
    INDEX 01 44:34:66
  TRACK 09 AUDIO
    TITLE "Soul Trane"
    PERFORMER "The James Moody and Hank Jones Quartet"
    INDEX 00 50:40:47
    INDEX 01 50:43:47
  TRACK 10 AUDIO
    TITLE "Woody 'N You"
    PERFORMER "The James Moody and Hank Jones Quartet"
    INDEX 00 60:09:43
    INDEX 01 60:12:43
  TRACK 11 AUDIO
    TITLE "Old Folks"
    PERFORMER "The James Moody and Hank Jones Quartet"
    INDEX 00 65:30:55
    INDEX 01 65:33:55
  TRACK 12 AUDIO
    TITLE "Moody's Groove"
    PERFORMER "The James Moody and Hank Jones Quartet"
    INDEX 00 72:10:60
    INDEX 01 72:13:60
По всем вопросам пишите личное сообщение пользователю M0p94ok.
15:58
400
Нет комментариев. Ваш будет первым!