Поиск

2008 Sara K. - Don't I Know You from Somewhere? - Solo (Live) {Stockfisch} [24-44.1]

2008 Sara K. - Don't I Know You from Somewhere? - Solo (Live) {Stockfisch} [24-44.1]
Стили:
Издатель (лейбл):
Носитель:
WEB
Формат:
PCM
Тип рипа:
tracks
Контейнер:
FLAC (*.flac)
Количество каналов:
2.0
Разрядность/ЧД:
24/44,1
Битрейт аудио:
lossless
Наличие сканов:
только обложка
Треклист:

01 - Introduction 00:47
02 - Don't I Know You from Somewhere? 04:08
03 - When I Didn't Care 04:41
04 - Stop Those Bells 04:37
05 - After There's a Blizzard 04:41
06 - Sizzlin' 03:56
07 - Gypsy Eyes 03:38
08 - What You Don't Know 04:18
09 - Aura of the Blade 03:21
10 - Fish Outta Water 03:30
11 - I Couldn't Change Your Mind 04:46
12 - Manchild 04:20
13 - Burnin' Both Ends 04:03
14 - What's a Little More Rain 05:04
15 - If I Could Sing Your Blues 03:37

Состав:
  • Sara K. — vocals & manzanita 4string-guitar
Лог проверки качества
foobar2000 1.4.3 / Dynamic Range Meter 1.1.1
log date: 2022-04-28 18:50:18
--------------------------------------------------------------------------------
Analyzed: Sara K. / Don't I Know You from Somewhere? - Solo Live (Remastered)
--------------------------------------------------------------------------------
DR         Peak         RMS     Duration Track
--------------------------------------------------------------------------------
DR12      -2.86 dB   -18.42 dB      0:47 01-Introduction (Live)
DR9       -0.96 dB   -12.80 dB      4:08 02-Don't I Know You from Somewhere? (Live)
DR10      -0.96 dB   -13.03 dB      4:42 03-When I Didn't Care (Live)
DR10      -0.96 dB   -13.40 dB      4:38 04-Stop Those Bells (Live)
DR9       -0.97 dB   -12.42 dB      4:42 05-After There's a Blizzard (Live)
DR9       -0.96 dB   -12.22 dB      3:57 06-Sizzlin' (Live)
DR10      -0.84 dB   -14.01 dB      3:38 07-Gypsy Eyes (Live)
DR9       -0.98 dB   -12.23 dB      4:18 08-What You Don't Know (Live)
DR10      -0.96 dB   -13.28 dB      3:21 09-Aura of the Blade (Live)
DR9       -0.95 dB   -12.38 dB      3:31 10-Fish Outta Water (Live)
DR9       -0.97 dB   -12.14 dB      4:46 11-I Couldn't Change Your Mind (Live)
DR9       -0.95 dB   -11.96 dB      4:21 12-Manchild (Live)
DR9       -0.97 dB   -12.13 dB      4:04 13-Burnin' Both Ends (Live)
DR9       -0.96 dB   -12.80 dB      5:05 14-What's a Little More Rain (Live)
DR9       -0.90 dB   -12.35 dB      3:38 15-If I Could Sing Your Blues (Live)
--------------------------------------------------------------------------------
Number of tracks:  15
Official DR value: DR9
Samplerate:        44100 Hz
Channels:          2
Bits per sample:   24
Bitrate:           1503 kbps
Codec:             FLAC
================================================================================
00:53
369
Нет комментариев. Ваш будет первым!