Поиск

2008 Ruby Braff With Scott Hamilton - For The Last Time - Ruby Braff's Historic Final Performance With Scott Hamilton {Arbors ARCD 19368} [2CD]

2008 Ruby Braff With Scott Hamilton - For The Last Time - Ruby Braff's Historic Final Performance With Scott Hamilton {Arbors ARCD 19368} [2CD]
Стили:
Издатель (лейбл):
Номер по каталогу:
ARCD 19368
Треклист:

CD1
1 Sometimes I'm Happy
2 Why Shouldn't I?
3 Just You, Just Me
4 I Want A Little Girl
5 Rockin' Chair
CD2
1 Dinah
2 Yesterdays
3 The Man I Love
4 The Man With A Horn
5 Indiana

Лог создания рипа CD1
Exact Audio Copy V1.3 from 2. September 2016
EAC extraction logfile from 29. September 2018, 21:57
Ruby Braff and Scott Hamilton / Cd1
Used drive : Optiarc DVD RW AD-7243S Adapter: 1 ID: 0
Read mode : Secure
Utilize accurate stream : Yes
Defeat audio cache : Yes
Make use of C2 pointers : No
Read offset correction : 48
Overread into Lead-In and Lead-Out : No
Fill up missing offset samples with silence : Yes
Delete leading and trailing silent blocks : No
Null samples used in CRC calculations : Yes
Used interface : Native Win32 interface for Win NT & 2000
Used output format : User Defined Encoder
Selected bitrate : 112 kBit/s
Quality : High
Add ID3 tag : No
Command line compressor : C:\Program Files (x86)\Exact Audio Copy\Flac\flac.exe
Additional command line options : -T "artist=%artist%" -T "title=%title%" -T "album=%albumtitle%" -T "date=%year%" -T "tracknumber=%tracknr%" -T "genre=%genre%" -5 %source%
TOC of the extracted CD
Track | Start | Length | Start sector | End sector
---------------------------------------------------------
1 | 0:00.00 | 12:15.70 | 0 | 55194
2 | 12:15.70 | 4:57.21 | 55195 | 77490
3 | 17:13.16 | 12:24.30 | 77491 | 133320
4 | 29:37.46 | 15:58.47 | 133321 | 205217
5 | 45:36.18 | 13:55.71 | 205218 | 267913
Range status and errors
Selected range
Filename H:\sax\Новая папка\2008 For The Last Time - Ruby Braff's Historic Final Performance With Scott Hamilton\Ruby Braff and Scott Hamilton - Cd1\Ruby Braff and Scott Hamilton - Cd1.wav
Peak level 88.2 %
Extraction speed 4.1 X
Range quality 100.0 %
Test CRC B20500BC
Copy CRC B20500BC
Copy OK
No errors occurred
End of status report
---- CUETools DB Plugin V2.1.6
[CTDB TOCID: UsosneAyhoBMNJnXGJMtp2DCY5w-] found
Submit result: UsosneAyhoBMNJnXGJMtp2DCY5w- has been confirmed
Track | CTDB Status
1 | (3/3) Accurately ripped
2 | (3/3) Accurately ripped
3 | (3/3) Accurately ripped
4 | (3/3) Accurately ripped
5 | (3/3) Accurately ripped
==== Log checksum 018E99F7233B5BEC7661E010D3E58A42B7007B21AA1AC16D31EFBF1FE99C62C9 ====
Лог создания рипа CD2
Exact Audio Copy V1.3 from 2. September 2016
EAC extraction logfile from 29. September 2018, 22:27
Ruby Braff and Scott Hamilton / Ruby Braff and Scott Hamilton - Cd2
Used drive : Optiarc DVD RW AD-7243S Adapter: 1 ID: 0
Read mode : Secure
Utilize accurate stream : Yes
Defeat audio cache : Yes
Make use of C2 pointers : No
Read offset correction : 48
Overread into Lead-In and Lead-Out : No
Fill up missing offset samples with silence : Yes
Delete leading and trailing silent blocks : No
Null samples used in CRC calculations : Yes
Used interface : Native Win32 interface for Win NT & 2000
Used output format : User Defined Encoder
Selected bitrate : 112 kBit/s
Quality : High
Add ID3 tag : No
Command line compressor : C:\Program Files (x86)\Exact Audio Copy\Flac\flac.exe
Additional command line options : -T "artist=%artist%" -T "title=%title%" -T "album=%albumtitle%" -T "date=%year%" -T "tracknumber=%tracknr%" -T "genre=%genre%" -5 %source%
TOC of the extracted CD
Track | Start | Length | Start sector | End sector
---------------------------------------------------------
1 | 0:00.00 | 10:29.35 | 0 | 47209
2 | 10:29.35 | 13:08.10 | 47210 | 106319
3 | 23:37.45 | 15:42.55 | 106320 | 177024
4 | 39:20.25 | 6:31.53 | 177025 | 206402
5 | 45:52.03 | 9:48.72 | 206403 | 250574
Range status and errors
Selected range
Filename H:\sax\Новая папка\2008 For The Last Time - Ruby Braff's Historic Final Performance With Scott Hamilton\Ruby Braff and Scott Hamilton - Cd2\Ruby Braff and Scott Hamilton - Ruby Braff and Scott Hamilton - Cd2.wav
Peak level 100.0 %
Extraction speed 4.0 X
Range quality 100.0 %
Test CRC 4FE653AD
Copy CRC 4FE653AD
Copy OK
No errors occurred
End of status report
---- CUETools DB Plugin V2.1.6
[CTDB TOCID: zSR0tHGCv_Qj.Ee8z4D.nQiXWlU-] database access error: Невозможно разрешить удаленное имя: 'db.cuetools.net'
==== Log checksum DDA6FB328B70DC0BD1097970888C364FBD5FD4DB2528EF6C68604DC3DBD94BEE ====
Приватный:
Нет (DHT включён)
Размер:
647.92 Мб (679,396,809 байт) » файлов: 8
Участники:
9 раздают, 0 качают (9 участников всего)
Внешние участники:
--- [ Обновить ]
Никого нет на раздаче - пишите личное сообщение M0p94ok
No seeders - write personal message to M0p94ok
21:07
13
Нет комментариев. Ваш будет первым!