Поиск

2008 Renato Sellani Trio - O Sole Mio (2018) {Venus} [DSD64 ISO]

2008 Renato Sellani Trio - O Sole Mio (2018) {Venus} [DSD64 ISO]
Дата записи диска:
19 июля 2007
Место записи:
The House Recording Studio, Rome, Italy
Дата издания диска:
15 октября 2008
Издатель (лейбл):
Номер по каталогу:
VHGD-291
Носитель:
SACD
Формат:
DSD
Тип рипа:
image
Контейнер:
ISO (*.iso)
Количество каналов:
2.0
Разрядность/ЧД:
64 (2,8 MHz/1 Bit)
Битрейт аудио:
lossless
Время звучания:
00:42:39
Наличие сканов:
да

Треклист:

1. Donna  03:54
2. Tu Che M'hai Preso Il Cuor  03:49
3. Ma L'amore No  04:00
4. Estate  05:01
5. Abbassa La Tua Radio  04:56
6. O Sole Mio  03:01
7. In Un Vecchio Palco Della Scala  04:38
8. Naples Medley  07:27
9. Autoritratto  05:48

Состав:
  • Bass – Massimo Moriconi
  • Drums – Massimo Manzi
  • Engineer – Simone Ciammarughi
  • Mixed By, Mastered By – Shuji Kitamura, Tetsuo Hara
  • Piano – Renato Sellani
  • Producer – Tetsuo Hara
Лог проверки качества
foobar2000 1.6.4 / Dynamic Range Meter 1.1.1
log date: 2021-07-07 08:53:58

--------------------------------------------------------------------------------
Analyzed: RENATO SELLANI TRIO / O Sole Mio
--------------------------------------------------------------------------------

DR         Peak         RMS     Duration Track
--------------------------------------------------------------------------------
DR8       -4.96 dB   -15.63 dB      3:55 01-Donna
DR7       -4.84 dB   -14.83 dB      3:50 02-Tu Che M'hai Preso Il Cuor
DR8       -4.89 dB   -15.73 dB      4:00 03-Ma L'amore No
DR11      -5.25 dB   -20.15 dB      5:02 04-Estate
DR8       -4.85 dB   -15.60 dB      4:57 05-Abbassa La Tua Radio
DR11      -5.28 dB   -20.57 dB      3:01 06-O Sole Mio
DR8       -4.79 dB   -15.59 dB      4:39 07-In Un Vecchio Palco Della Scala
DR10      -5.20 dB   -19.36 dB      7:27 08-Naples Medley [ Funiculi Funicula ~ A Vucchella ~ Munastero `E Santa Chiara ~ Io Te Vurria Vusa` ~ Reginella ~ Torna A Surriento ]
DR7       -4.48 dB   -15.37 dB      5:49 09-Autoritratto
--------------------------------------------------------------------------------

Number of tracks:  9
Official DR value: DR9

Samplerate:        2822400 Hz / PCM Samplerate: 88200 Hz
Channels:          2
Bits per sample:   1
Bitrate:           5645 kbps
Codec:             DSD64
================================================================================
По всем вопросам пишите личное сообщение пользователю M0p94ok.
10:32
297
Нет комментариев. Ваш будет первым!