Вы используете незарегистрированную версию компонента "Вкладки"!

Поиск

2008 Nacho Sotomayor, Rebecca Newey - Newey {Absolut Ambient} [WEB]

2008 Nacho Sotomayor, Rebecca Newey - Newey {Absolut Ambient} [WEB]
Стили:
Номер по каталогу:
AACD 004
Носитель:
CD
Тип рипа:
image
Аудиокодек:
FLAC (*.flac)
Битрейт аудио:
lossless
Время звучания:
01:10:34
Наличие сканов:
буклет pdf
Страна-производитель диска (релиза):
Spain
Релизёр (источник):
vacoder
Лог создания рипа
Exact Audio Copy V0.99 prebeta 4 from 23. January 2008

EAC extraction logfile from 14. March 2009, 0:16

Rebecca Newey & Nacho Sotomayor / Newey

Used drive : PIONEER DVD-RW DVR-112D Adapter: 1 ID: 0

Read mode : Secure
Utilize accurate stream : Yes
Defeat audio cache : Yes
Make use of C2 pointers : No

Read offset correction : 48
Overread into Lead-In and Lead-Out : No
Fill up missing offset samples with silence : Yes
Delete leading and trailing silent blocks : No
Null samples used in CRC calculations : Yes
Used interface : Installed external ASPI interface

Used output format : User Defined Encoder
Selected bitrate : 192 kBit/s
Quality : Low
Add ID3 tag : Yes
Command line compressor : C:\Program Files\E A C Audio\Flac\flac.exe
Additional command line options : -V -8 -T "artist=%a" -T "title=%t" -T "album=%g" -T "date=%y" -T "tracknumber=%n" -T "genre=%m" %s

TOC of the extracted CD

Track | Start | Length | Start sector | End sector
---------------------------------------------------------
1 | 0:00.00 | 5:16.30 | 0 | 23729
2 | 5:16.30 | 5:33.50 | 23730 | 48754
3 | 10:50.05 | 2:58.08 | 48755 | 62112
4 | 13:48.13 | 5:06.65 | 62113 | 85127
5 | 18:55.03 | 5:13.69 | 85128 | 108671
6 | 24:08.72 | 5:11.51 | 108672 | 132047
7 | 29:20.48 | 4:25.37 | 132048 | 151959
8 | 33:46.10 | 3:27.67 | 151960 | 167551
9 | 37:14.02 | 4:12.66 | 167552 | 186517
10 | 41:26.68 | 4:25.68 | 186518 | 206460
11 | 45:52.61 | 5:11.44 | 206461 | 229829
12 | 51:04.30 | 5:14.64 | 229830 | 253443
13 | 56:19.19 | 4:30.70 | 253444 | 273763
14 | 60:50.14 | 5:16.07 | 273764 | 297470
15 | 66:06.21 | 4:27.61 | 297471 | 317556

Range status and errors

Selected range

Filename G:\lossless-room.nnm.ru\Rebecca Newey & Nacho Sotomayor - Newey\Rebecca Newey & Nacho Sotomayor - Newey.wav

Peak level 100.0 %
Range quality 100.0 %
Test CRC 110C9CBC
Copy CRC 110C9CBC
Copy OK

No errors occurred

AccurateRip summary

Track 1 not present in database
Track 2 not present in database
Track 3 not present in database
Track 4 not present in database
Track 5 not present in database
Track 6 not present in database
Track 7 not present in database
Track 8 not present in database
Track 9 not present in database
Track 10 not present in database
Track 11 not present in database
Track 12 not present in database
Track 13 not present in database
Track 14 not present in database
Track 15 not present in database

None of the tracks are present in the AccurateRip database

End of status report
Any questions - support@pro-jazz.com. Есть вопросы - support@pro-jazz.com
20:44
153
Нет комментариев. Ваш будет первым!