Поиск

2008 Charlie Parker - Now's The Time {Verve, Universal 06007 5307161} [CD]

2008 Charlie Parker - Now's The Time {Verve, Universal 06007 5307161} [CD]
Стили:
Издатель (лейбл):
Треклист:

01. Laird Baird (2:46)
02. Now's The Time (3:02)
03. I've Got You Under My Skin (3:34)
04. I Remember You (3:04)
05. Chi-Chi (3:04)
06. I Get A Kick Out Of You (3:35)
07. Tico-Toco (2:46)
08. La Cucaracha (2:43)
09. La Paloma (2:41)
10. My Heart Belongs To Daddy (3:19)
11. Fiesta (2:52)
12. Un Poquito De Tu Amor (2:42)
13. My Little Suede Shoes (3:05)
14. I'm In The Mood For Love (2:53)
15. Star Eyes (3:36)
16. K.C. Blues (3:26)
17. Cosmic Rays (3:06)
18. Lover Man (3:23)

Доп. инфо:

Номер по каталогу: 06007 5307161
Тип рипа: image+.cue
Продолжительность: 55:36
Риппер: anonim
Сканы есть

Лог создания рипа
Exact Audio Copy V1.0 beta 3 from 29. August 2011

Отчёт EAC об извлечении, выполненном 22. мая 2013, 23:47

Charlie Parker / Now's The Time

Дисковод: ASUS    DRW-22B2ST   Adapter: 2  ID: 1

Режим чтения                 : Достоверность
Использование точного потока : Да
Отключение кэша аудио        : Да
Использование указателей C2  : Нет

Коррекция смещения при чтении                     : 6
Способность читать области Lead-in и Lead-out     : Нет
Заполнение пропущенных сэмплов тишиной            : Да
Удаление блоков с тишиной в начале и конце        : Нет
При вычислениях CRC использовались нулевые сэмплы : Да
Интерфейс                                         : Установленный внешний ASPI-интерфейс

Выходной формат : Внутренние WAV-операции
Формат сэмплов  : 44.100 Гц; 16 бит; стерео


TOC извлечённого CD

     Трек |   Старт  | Длительность | Начальный сектор | Конечный сектор 
    ---------------------------------------------------------------------
       1  |  0:00.00 |    2:45.70   |           0      |      12444      
       2  |  2:45.70 |    3:01.52   |       12445      |      26071      
       3  |  5:47.47 |    3:33.70   |       26072      |      42116      
       4  |  9:21.42 |    3:03.48   |       42117      |      55889      
       5  | 12:25.15 |    3:03.74   |       55890      |      69688      
       6  | 15:29.14 |    3:34.54   |       69689      |      85792      
       7  | 19:03.68 |    2:45.61   |       85793      |      98228      
       8  | 21:49.54 |    2:42.74   |       98229      |     110452      
       9  | 24:32.53 |    2:40.43   |      110453      |     122495      
      10  | 27:13.21 |    3:19.34   |      122496      |     137454      
      11  | 30:32.55 |    2:51.42   |      137455      |     150321      
      12  | 33:24.22 |    2:42.33   |      150322      |     162504      
      13  | 36:06.55 |    3:05.13   |      162505      |     176392      
      14  | 39:11.68 |    2:52.71   |      176393      |     189363      
      15  | 42:04.64 |    3:35.47   |      189364      |     205535      
      16  | 45:40.36 |    3:25.63   |      205536      |     220973      
      17  | 49:06.24 |    3:06.19   |      220974      |     234942      
      18  | 52:12.43 |    3:23.23   |      234943      |     250190      


Характеристики диапазона извлечения и сообщения об ошибках

Выбранный диапазон

     Имя файла E:\MP3Files\МУЗ РАБОЧИЙ\EAC\FLAC\Charlie Parker - Now's The Time.wav

     Пиковый уровень 98.8 %
     Скорость извлечения 3.4 X
     Качество диапазона 100.0 %
     CRC теста 4EA9A08B
     CRC копии 4EA9A08B
     Копирование... OK

Ошибок не произошло

 
AccurateRip: сводка
 
Трек  1  отсутствует в базе данных
Трек  2  отсутствует в базе данных
Трек  3  отсутствует в базе данных
Трек  4  отсутствует в базе данных
Трек  5  отсутствует в базе данных
Трек  6  отсутствует в базе данных
Трек  7  отсутствует в базе данных
Трек  8  отсутствует в базе данных
Трек  9  отсутствует в базе данных
Трек 10  отсутствует в базе данных
Трек 11  отсутствует в базе данных
Трек 12  отсутствует в базе данных
Трек 13  отсутствует в базе данных
Трек 14  отсутствует в базе данных
Трек 15  отсутствует в базе данных
Трек 16  отсутствует в базе данных
Трек 17  отсутствует в базе данных
Трек 18  отсутствует в базе данных
 
Ни одного трека нет в базе AccurateRip

Конец отчёта

==== Контрольная сумма отчёта 2BB2BA2118A4E8482E8FFCB4FEF27C10E6CDB2AEC780403831B01BC90010577D ====
08:49
1011
Нет комментариев. Ваш будет первым!