Поиск

2007 VA - This Is Soul {Rhino} [CD]

Треклист:

01. Wilson Pickett - Mustang Sally {3:06}
02. Carla Thomas - B-A-B-Y {2:54}
03. Arthur Conley - Sweet Soul Music {2:18}
04. Percy Sledge - When A Man Loves A Woman {2:50}
05. Sam & Dave - I Got Everything I Need {2:55}
06. Ben E. King - What Is Soul? {2:19}
07. Otis Redding - Fa-Fa-Fa-Fa-Fa (Sad Song) {2:41}
08. Eddie Floyd - Knock On Wood {3:03}
09. Solomon Burke - Keep Looking {2:38}
10. Aretha Franklin - I Never Loved A Man {2:41}
11. Percy Sledge - Warm And Tender Love {3:19}
12. Wilson Pickett - Land Of 1000 Dances {2:24}
13. Sam & Dave - Hold On I'm Coming {2:34}
14. Bar-Kays - Soul Finger {2:20}
15. King Curtis - Memphis Soul Stew {2:54}
16. Otis Redding - Hard To Handle {2:19}
17. Aretha Franklin - Save Me {2:16}
18. Archie Bell & The Drells - Tighten Up Pt 1 {3:10}
19. Wilson Pickett - Funky Broadway {2:35}
20. Otis Redding & Carla Thomas - Tramp {2:58}
21. Mad Lads - Get Out Of My Life {3:12}
22. Barbara Lynn - Your Losing Me {2:16}
23. Soul Brothers Six - Some Kind Of Wonderful {2:38}
24. Jeanne & The Darlings - Soul Girl {2:28}
25. Arthur Conley - Funky Street {2:21}
26. Eddie Floyd - Big Bird {2:58}
27. Soul Clan - Soul Meeting {3:35}
28. Johnny Taylor - Ain't That Loving You (For More Reasons Than One) {3:08}
29. Otis Redding - (Sittin' On) The Dock Of The Bay {2:39}

Доп. инфо:

Источник - The Pirate Bay
Релизёр oneanight | Discogs | Catalog#: 5144-20123-2
Сканы буклета (600dpi JPEG) в комплекте
Жанр: R'n'B, Soul, Funk
Год выпуска диска: 2007
Производитель диска: Rhino (UK)
Аудио кодек: FLAC
Тип рипа: tracks+.cue
Битрейт аудио: lossless
Продолжительность: 1 час 19 мин 29 сек

Лог создания рипа
Exact Audio Copy V0.99 prebeta 4 from 23. January 2008

EAC extraction logfile from 20. August 2009, 21:13

Various Artists / This Is Soul

Used drive  : HL-DT-STDVDRRW GSA-H30L   Adapter: 0  ID: 0

Read mode               : Secure
Utilize accurate stream : Yes
Defeat audio cache      : Yes
Make use of C2 pointers : No

Read offset correction                      : 102
Overread into Lead-In and Lead-Out          : No
Fill up missing offset samples with silence : Yes
Delete leading and trailing silent blocks   : No
Null samples used in CRC calculations       : Yes
Used interface                              : Installed external ASPI interface
Gap handling                                : Appended to previous track

Used output format              : User Defined Encoder
Selected bitrate                : 1024 kBit/s
Quality                         : High
Add ID3 tag                     : No
Command line compressor         : C:\Program Files\Exact Audio Copy\Flac\flac.exe
Additional command line options : -8 -V -T "ARTIST=%a" -T "TITLE=%t" -T "ALBUM=%g" -T "DATE=%y" -T "TRACKNUMBER=%n" -T "GENRE=%m" -T "COMMENT=EAC FLAC - 8 - oan" %s

TOC of the extracted CD

     Track |   Start  |  Length  | Start sector | End sector
    ---------------------------------------------------------
        1  |  0:00.00 |  3:06.15 |         0    |    13964
        2  |  3:06.15 |  2:53.46 |     13965    |    26985
        3  |  5:59.61 |  2:18.28 |     26986    |    37363
        4  |  8:18.14 |  2:50.07 |     37364    |    50120
        5  | 11:08.21 |  2:54.47 |     50121    |    63217
        6  | 14:02.68 |  2:19.34 |     63218    |    73676
        7  | 16:22.27 |  2:40.40 |     73677    |    85716
        8  | 19:02.67 |  3:03.11 |     85717    |    99452
        9  | 22:06.03 |  2:38.36 |     99453    |   111338
       10  | 24:44.39 |  2:40.42 |    111339    |   123380
       11  | 27:25.06 |  3:19.27 |    123381    |   138332
       12  | 30:44.33 |  2:24.24 |    138333    |   149156
       13  | 33:08.57 |  2:33.54 |    149157    |   160685
       14  | 35:42.36 |  2:19.56 |    160686    |   171166
       15  | 38:02.17 |  2:53.74 |    171167    |   184215
       16  | 40:56.16 |  2:19.12 |    184216    |   194652
       17  | 43:15.28 |  2:16.10 |    194653    |   204862
       18  | 45:31.38 |  3:10.36 |    204863    |   219148
       19  | 48:41.74 |  2:34.63 |    219149    |   230761
       20  | 51:16.62 |  2:58.20 |    230762    |   244131
       21  | 54:15.07 |  3:12.15 |    244132    |   258546
       22  | 57:27.22 |  2:16.36 |    258547    |   268782
       23  | 59:43.58 |  2:37.53 |    268783    |   280610
       24  | 62:21.36 |  2:27.44 |    280611    |   291679
       25  | 64:49.05 |  2:20.54 |    291680    |   302233
       26  | 67:09.59 |  2:58.07 |    302234    |   315590
       27  | 70:07.66 |  3:34.72 |    315591    |   331712
       28  | 73:42.63 |  3:07.38 |    331713    |   345775
       29  | 76:50.26 |  2:39.04 |    345776    |   357704

Track  1

     Filename C:\oan\01 - Wilson Pickett - Mustang Sally.wav

     Pre-gap length  0:00:02.00

     Peak level 99.4 %
     Track quality 100.0 %
     Test CRC E189627C
     Copy CRC E189627C
     Accurately ripped (confidence 2)  [842DE1CE]
     Copy OK

Track  2

     Filename C:\oan\02 - Carla Thomas - B-A-B-Y.wav

     Pre-gap length  0:00:00.86

     Peak level 98.2 %
     Track quality 100.0 %
     Test CRC 549E6904
     Copy CRC 549E6904
     Accurately ripped (confidence 2)  [AD16A804]
     Copy OK

Track  3

     Filename C:\oan\03 - Arthur Conley - Sweet Soul Music.wav

     Pre-gap length  0:00:00.86

     Peak level 99.4 %
     Track quality 100.0 %
     Test CRC 6D4D23A6
     Copy CRC 6D4D23A6
     Accurately ripped (confidence 2)  [BFBD684A]
     Copy OK

Track  4

     Filename C:\oan\04 - Percy Sledge - When A Man Loves A Woman.wav

     Pre-gap length  0:00:00.86

     Peak level 99.4 %
     Track quality 100.0 %
     Test CRC 73C1ED8D
     Copy CRC 73C1ED8D
     Accurately ripped (confidence 2)  [FF051260]
     Copy OK

Track  5

     Filename C:\oan\05 - Sam & Dave - I Got Everything I Need.wav

     Pre-gap length  0:00:00.86

     Peak level 99.4 %
     Track quality 100.0 %
     Test CRC 4D310011
     Copy CRC 4D310011
     Accurately ripped (confidence 2)  [DCCD1299]
     Copy OK

Track  6

     Filename C:\oan\06 - Ben E. King - What Is Soul .wav

     Peak level 88.7 %
     Track quality 99.9 %
     Test CRC 18C0D103
     Copy CRC 18C0D103
     Accurately ripped (confidence 2)  [5ADA0FFB]
     Copy OK

Track  7

     Filename C:\oan\07 - Otis Redding - Fa-Fa-Fa-Fa-Fa (Sad Song).wav

     Pre-gap length  0:00:00.86

     Peak level 95.1 %
     Track quality 100.0 %
     Test CRC 597A9D72
     Copy CRC 597A9D72
     Accurately ripped (confidence 2)  [6DF75B1B]
     Copy OK

Track  8

     Filename C:\oan\08 - Eddie Floyd - Knock On Wood.wav

     Pre-gap length  0:00:00.86

     Peak level 85.3 %
     Track quality 100.0 %
     Test CRC 83D67284
     Copy CRC 83D67284
     Accurately ripped (confidence 2)  [EBA386B3]
     Copy OK

Track  9

     Filename C:\oan\09 - Solomon Burke - Keep Looking.wav

     Pre-gap length  0:00:00.86

     Peak level 99.4 %
     Track quality 100.0 %
     Test CRC 36B4D29C
     Copy CRC 36B4D29C
     Accurately ripped (confidence 2)  [5B4EBDAD]
     Copy OK

Track 10

     Filename C:\oan\10 - Aretha Franklin - I Never Loved A Man.wav

     Pre-gap length  0:00:00.86

     Peak level 99.4 %
     Track quality 100.0 %
     Test CRC 642BF8FE
     Copy CRC 642BF8FE
     Accurately ripped (confidence 2)  [8BA4904E]
     Copy OK

Track 11

     Filename C:\oan\11 - Percy Sledge - Warm And Tender Love.wav

     Pre-gap length  0:00:00.86

     Peak level 99.4 %
     Track quality 100.0 %
     Test CRC F2651076
     Copy CRC F2651076
     Accurately ripped (confidence 2)  [73B80E10]
     Copy OK

Track 12

     Filename C:\oan\12 - Wilson Pickett - Land Of 1000 Dances.wav

     Pre-gap length  0:00:00.86

     Peak level 99.4 %
     Track quality 100.0 %
     Test CRC DB5011F4
     Copy CRC DB5011F4
     Accurately ripped (confidence 2)  [B1D80E54]
     Copy OK

Track 13

     Filename C:\oan\13 - Sam & Dave - Hold On I'm Coming.wav

     Pre-gap length  0:00:00.86

     Peak level 81.9 %
     Track quality 100.0 %
     Test CRC 1F34AC03
     Copy CRC 1F34AC03
     Accurately ripped (confidence 2)  [35A81EA2]
     Copy OK

Track 14

     Filename C:\oan\14 - Bar-Kays - Soul Finger.wav

     Pre-gap length  0:00:00.86

     Peak level 88.8 %
     Track quality 100.0 %
     Test CRC F6D8F260
     Copy CRC F6D8F260
     Accurately ripped (confidence 2)  [28BA3E2E]
     Copy OK

Track 15

     Filename C:\oan\15 - King Curtis - Memphis Soul Stew.wav

     Pre-gap length  0:00:00.86

     Peak level 99.4 %
     Track quality 99.9 %
     Test CRC 60F95F5C
     Copy CRC 60F95F5C
     Accurately ripped (confidence 2)  [4AE2F775]
     Copy OK

Track 16

     Filename C:\oan\16 - Otis Redding - Hard To Handle.wav

     Peak level 99.4 %
     Track quality 99.9 %
     Test CRC 89BFA459
     Copy CRC 89BFA459
     Accurately ripped (confidence 2)  [1363A019]
     Copy OK

Track 17

     Filename C:\oan\17 - Aretha Franklin - Save Me.wav

     Peak level 99.4 %
     Track quality 99.9 %
     Test CRC D7E04FC1
     Copy CRC D7E04FC1
     Accurately ripped (confidence 2)  [AEB157C6]
     Copy OK

Track 18

     Filename C:\oan\18 - Archie Bell & The Drells - Tighten Up Pt 1.wav

     Peak level 99.4 %
     Track quality 100.0 %
     Test CRC 47DA0718
     Copy CRC 47DA0718
     Accurately ripped (confidence 2)  [9276C648]
     Copy OK

Track 19

     Filename C:\oan\19 - Wilson Pickett - Funky Broadway.wav

     Peak level 88.8 %
     Track quality 100.0 %
     Test CRC F5961038
     Copy CRC F5961038
     Accurately ripped (confidence 2)  [E5C9722C]
     Copy OK

Track 20

     Filename C:\oan\20 - Otis Redding & Carla Thomas - Tramp.wav

     Peak level 99.4 %
     Track quality 100.0 %
     Test CRC E70824A6
     Copy CRC E70824A6
     Accurately ripped (confidence 2)  [5A298060]
     Copy OK

Track 21

     Filename C:\oan\21 - Mad Lads - Get Out Of My Life.wav

     Peak level 88.8 %
     Track quality 100.0 %
     Test CRC A0F6D407
     Copy CRC A0F6D407
     Accurately ripped (confidence 2)  [780E38A3]
     Copy OK

Track 22

     Filename C:\oan\22 - Barbara Lynn - Your Losing Me.wav

     Peak level 99.4 %
     Track quality 99.9 %
     Test CRC 3A4FBD44
     Copy CRC 3A4FBD44
     Accurately ripped (confidence 2)  [53783DEB]
     Copy OK

Track 23

     Filename C:\oan\23 - Soul Brothers Six - Some Kind Of Wonderful.wav

     Peak level 99.4 %
     Track quality 99.9 %
     Test CRC C0D7C329
     Copy CRC C0D7C329
     Accurately ripped (confidence 2)  [7BB7161A]
     Copy OK

Track 24

     Filename C:\oan\24 - Jeanne & The Darlings - Soul Girl.wav

     Peak level 95.6 %
     Track quality 100.0 %
     Test CRC DD48B238
     Copy CRC DD48B238
     Accurately ripped (confidence 2)  [66D2389C]
     Copy OK

Track 25

     Filename C:\oan\25 - Arthur Conley - Funky Street.wav

     Peak level 88.9 %
     Track quality 100.0 %
     Test CRC 8C6A814B
     Copy CRC 8C6A814B
     Accurately ripped (confidence 2)  [8C931E30]
     Copy OK

Track 26

     Filename C:\oan\26 - Eddie Floyd - Big Bird.wav

     Peak level 84.1 %
     Track quality 100.0 %
     Test CRC 712E3B4D
     Copy CRC 712E3B4D
     Accurately ripped (confidence 2)  [5241F1B0]
     Copy OK

Track 27

     Filename C:\oan\27 - Soul Clan - Soul Meeting.wav

     Peak level 99.4 %
     Track quality 100.0 %
     Test CRC 3799DA16
     Copy CRC 3799DA16
     Accurately ripped (confidence 2)  [82C1BA37]
     Copy OK

Track 28

     Filename C:\oan\28 - Johnny Taylor - Ain't That Loving You (For More Reasons Than One).wav

     Peak level 97.9 %
     Track quality 100.0 %
     Test CRC BF9F315D
     Copy CRC BF9F315D
     Accurately ripped (confidence 2)  [71133BC5]
     Copy OK

Track 29

     Filename C:\oan\29 - Otis Redding - (Sittin' On) The Dock Of The Bay.wav

     Peak level 93.1 %
     Track quality 99.9 %
     Test CRC FC903DD8
     Copy CRC FC903DD8
     Accurately ripped (confidence 2)  [2195CADE]
     Copy OK

All tracks accurately ripped

No errors occurred

End of status report
Лог проверки качества
Exact Audio Copy V0.99 prebeta 4 from 23. January 2008

EAC extraction logfile from 20. August 2009, 21:13

Various Artists / This Is Soul

Used drive  : HL-DT-STDVDRRW GSA-H30L   Adapter: 0  ID: 0

Read mode               : Secure
Utilize accurate stream : Yes
Defeat audio cache      : Yes
Make use of C2 pointers : No

Read offset correction                      : 102
Overread into Lead-In and Lead-Out          : No
Fill up missing offset samples with silence : Yes
Delete leading and trailing silent blocks   : No
Null samples used in CRC calculations       : Yes
Used interface                              : Installed external ASPI interface
Gap handling                                : Appended to previous track

Used output format              : User Defined Encoder
Selected bitrate                : 1024 kBit/s
Quality                         : High
Add ID3 tag                     : No
Command line compressor         : C:\Program Files\Exact Audio Copy\Flac\flac.exe
Additional command line options : -8 -V -T "ARTIST=%a" -T "TITLE=%t" -T "ALBUM=%g" -T "DATE=%y" -T "TRACKNUMBER=%n" -T "GENRE=%m" -T "COMMENT=EAC FLAC - 8 - oan" %s

TOC of the extracted CD

     Track |   Start  |  Length  | Start sector | End sector
    ---------------------------------------------------------
        1  |  0:00.00 |  3:06.15 |         0    |    13964
        2  |  3:06.15 |  2:53.46 |     13965    |    26985
        3  |  5:59.61 |  2:18.28 |     26986    |    37363
        4  |  8:18.14 |  2:50.07 |     37364    |    50120
        5  | 11:08.21 |  2:54.47 |     50121    |    63217
        6  | 14:02.68 |  2:19.34 |     63218    |    73676
        7  | 16:22.27 |  2:40.40 |     73677    |    85716
        8  | 19:02.67 |  3:03.11 |     85717    |    99452
        9  | 22:06.03 |  2:38.36 |     99453    |   111338
       10  | 24:44.39 |  2:40.42 |    111339    |   123380
       11  | 27:25.06 |  3:19.27 |    123381    |   138332
       12  | 30:44.33 |  2:24.24 |    138333    |   149156
       13  | 33:08.57 |  2:33.54 |    149157    |   160685
       14  | 35:42.36 |  2:19.56 |    160686    |   171166
       15  | 38:02.17 |  2:53.74 |    171167    |   184215
       16  | 40:56.16 |  2:19.12 |    184216    |   194652
       17  | 43:15.28 |  2:16.10 |    194653    |   204862
       18  | 45:31.38 |  3:10.36 |    204863    |   219148
       19  | 48:41.74 |  2:34.63 |    219149    |   230761
       20  | 51:16.62 |  2:58.20 |    230762    |   244131
       21  | 54:15.07 |  3:12.15 |    244132    |   258546
       22  | 57:27.22 |  2:16.36 |    258547    |   268782
       23  | 59:43.58 |  2:37.53 |    268783    |   280610
       24  | 62:21.36 |  2:27.44 |    280611    |   291679
       25  | 64:49.05 |  2:20.54 |    291680    |   302233
       26  | 67:09.59 |  2:58.07 |    302234    |   315590
       27  | 70:07.66 |  3:34.72 |    315591    |   331712
       28  | 73:42.63 |  3:07.38 |    331713    |   345775
       29  | 76:50.26 |  2:39.04 |    345776    |   357704

Track  1

     Filename C:\oan\01 - Wilson Pickett - Mustang Sally.wav

     Pre-gap length  0:00:02.00

     Peak level 99.4 %
     Track quality 100.0 %
     Test CRC E189627C
     Copy CRC E189627C
     Accurately ripped (confidence 2)  [842DE1CE]
     Copy OK

Track  2

     Filename C:\oan\02 - Carla Thomas - B-A-B-Y.wav

     Pre-gap length  0:00:00.86

     Peak level 98.2 %
     Track quality 100.0 %
     Test CRC 549E6904
     Copy CRC 549E6904
     Accurately ripped (confidence 2)  [AD16A804]
     Copy OK

Track  3

     Filename C:\oan\03 - Arthur Conley - Sweet Soul Music.wav

     Pre-gap length  0:00:00.86

     Peak level 99.4 %
     Track quality 100.0 %
     Test CRC 6D4D23A6
     Copy CRC 6D4D23A6
     Accurately ripped (confidence 2)  [BFBD684A]
     Copy OK

Track  4

     Filename C:\oan\04 - Percy Sledge - When A Man Loves A Woman.wav

     Pre-gap length  0:00:00.86

     Peak level 99.4 %
     Track quality 100.0 %
     Test CRC 73C1ED8D
     Copy CRC 73C1ED8D
     Accurately ripped (confidence 2)  [FF051260]
     Copy OK

Track  5

     Filename C:\oan\05 - Sam & Dave - I Got Everything I Need.wav

     Pre-gap length  0:00:00.86

     Peak level 99.4 %
     Track quality 100.0 %
     Test CRC 4D310011
     Copy CRC 4D310011
     Accurately ripped (confidence 2)  [DCCD1299]
     Copy OK

Track  6

     Filename C:\oan\06 - Ben E. King - What Is Soul .wav

     Peak level 88.7 %
     Track quality 99.9 %
     Test CRC 18C0D103
     Copy CRC 18C0D103
     Accurately ripped (confidence 2)  [5ADA0FFB]
     Copy OK

Track  7

     Filename C:\oan\07 - Otis Redding - Fa-Fa-Fa-Fa-Fa (Sad Song).wav

     Pre-gap length  0:00:00.86

     Peak level 95.1 %
     Track quality 100.0 %
     Test CRC 597A9D72
     Copy CRC 597A9D72
     Accurately ripped (confidence 2)  [6DF75B1B]
     Copy OK

Track  8

     Filename C:\oan\08 - Eddie Floyd - Knock On Wood.wav

     Pre-gap length  0:00:00.86

     Peak level 85.3 %
     Track quality 100.0 %
     Test CRC 83D67284
     Copy CRC 83D67284
     Accurately ripped (confidence 2)  [EBA386B3]
     Copy OK

Track  9

     Filename C:\oan\09 - Solomon Burke - Keep Looking.wav

     Pre-gap length  0:00:00.86

     Peak level 99.4 %
     Track quality 100.0 %
     Test CRC 36B4D29C
     Copy CRC 36B4D29C
     Accurately ripped (confidence 2)  [5B4EBDAD]
     Copy OK

Track 10

     Filename C:\oan\10 - Aretha Franklin - I Never Loved A Man.wav

     Pre-gap length  0:00:00.86

     Peak level 99.4 %
     Track quality 100.0 %
     Test CRC 642BF8FE
     Copy CRC 642BF8FE
     Accurately ripped (confidence 2)  [8BA4904E]
     Copy OK

Track 11

     Filename C:\oan\11 - Percy Sledge - Warm And Tender Love.wav

     Pre-gap length  0:00:00.86

     Peak level 99.4 %
     Track quality 100.0 %
     Test CRC F2651076
     Copy CRC F2651076
     Accurately ripped (confidence 2)  [73B80E10]
     Copy OK

Track 12

     Filename C:\oan\12 - Wilson Pickett - Land Of 1000 Dances.wav

     Pre-gap length  0:00:00.86

     Peak level 99.4 %
     Track quality 100.0 %
     Test CRC DB5011F4
     Copy CRC DB5011F4
     Accurately ripped (confidence 2)  [B1D80E54]
     Copy OK

Track 13

     Filename C:\oan\13 - Sam & Dave - Hold On I'm Coming.wav

     Pre-gap length  0:00:00.86

     Peak level 81.9 %
     Track quality 100.0 %
     Test CRC 1F34AC03
     Copy CRC 1F34AC03
     Accurately ripped (confidence 2)  [35A81EA2]
     Copy OK

Track 14

     Filename C:\oan\14 - Bar-Kays - Soul Finger.wav

     Pre-gap length  0:00:00.86

     Peak level 88.8 %
     Track quality 100.0 %
     Test CRC F6D8F260
     Copy CRC F6D8F260
     Accurately ripped (confidence 2)  [28BA3E2E]
     Copy OK

Track 15

     Filename C:\oan\15 - King Curtis - Memphis Soul Stew.wav

     Pre-gap length  0:00:00.86

     Peak level 99.4 %
     Track quality 99.9 %
     Test CRC 60F95F5C
     Copy CRC 60F95F5C
     Accurately ripped (confidence 2)  [4AE2F775]
     Copy OK

Track 16

     Filename C:\oan\16 - Otis Redding - Hard To Handle.wav

     Peak level 99.4 %
     Track quality 99.9 %
     Test CRC 89BFA459
     Copy CRC 89BFA459
     Accurately ripped (confidence 2)  [1363A019]
     Copy OK

Track 17

     Filename C:\oan\17 - Aretha Franklin - Save Me.wav

     Peak level 99.4 %
     Track quality 99.9 %
     Test CRC D7E04FC1
     Copy CRC D7E04FC1
     Accurately ripped (confidence 2)  [AEB157C6]
     Copy OK

Track 18

     Filename C:\oan\18 - Archie Bell & The Drells - Tighten Up Pt 1.wav

     Peak level 99.4 %
     Track quality 100.0 %
     Test CRC 47DA0718
     Copy CRC 47DA0718
     Accurately ripped (confidence 2)  [9276C648]
     Copy OK

Track 19

     Filename C:\oan\19 - Wilson Pickett - Funky Broadway.wav

     Peak level 88.8 %
     Track quality 100.0 %
     Test CRC F5961038
     Copy CRC F5961038
     Accurately ripped (confidence 2)  [E5C9722C]
     Copy OK

Track 20

     Filename C:\oan\20 - Otis Redding & Carla Thomas - Tramp.wav

     Peak level 99.4 %
     Track quality 100.0 %
     Test CRC E70824A6
     Copy CRC E70824A6
     Accurately ripped (confidence 2)  [5A298060]
     Copy OK

Track 21

     Filename C:\oan\21 - Mad Lads - Get Out Of My Life.wav

     Peak level 88.8 %
     Track quality 100.0 %
     Test CRC A0F6D407
     Copy CRC A0F6D407
     Accurately ripped (confidence 2)  [780E38A3]
     Copy OK

Track 22

     Filename C:\oan\22 - Barbara Lynn - Your Losing Me.wav

     Peak level 99.4 %
     Track quality 99.9 %
     Test CRC 3A4FBD44
     Copy CRC 3A4FBD44
     Accurately ripped (confidence 2)  [53783DEB]
     Copy OK

Track 23

     Filename C:\oan\23 - Soul Brothers Six - Some Kind Of Wonderful.wav

     Peak level 99.4 %
     Track quality 99.9 %
     Test CRC C0D7C329
     Copy CRC C0D7C329
     Accurately ripped (confidence 2)  [7BB7161A]
     Copy OK

Track 24

     Filename C:\oan\24 - Jeanne & The Darlings - Soul Girl.wav

     Peak level 95.6 %
     Track quality 100.0 %
     Test CRC DD48B238
     Copy CRC DD48B238
     Accurately ripped (confidence 2)  [66D2389C]
     Copy OK

Track 25

     Filename C:\oan\25 - Arthur Conley - Funky Street.wav

     Peak level 88.9 %
     Track quality 100.0 %
     Test CRC 8C6A814B
     Copy CRC 8C6A814B
     Accurately ripped (confidence 2)  [8C931E30]
     Copy OK

Track 26

     Filename C:\oan\26 - Eddie Floyd - Big Bird.wav

     Peak level 84.1 %
     Track quality 100.0 %
     Test CRC 712E3B4D
     Copy CRC 712E3B4D
     Accurately ripped (confidence 2)  [5241F1B0]
     Copy OK

Track 27

     Filename C:\oan\27 - Soul Clan - Soul Meeting.wav

     Peak level 99.4 %
     Track quality 100.0 %
     Test CRC 3799DA16
     Copy CRC 3799DA16
     Accurately ripped (confidence 2)  [82C1BA37]
     Copy OK

Track 28

     Filename C:\oan\28 - Johnny Taylor - Ain't That Loving You (For More Reasons Than One).wav

     Peak level 97.9 %
     Track quality 100.0 %
     Test CRC BF9F315D
     Copy CRC BF9F315D
     Accurately ripped (confidence 2)  [71133BC5]
     Copy OK

Track 29

     Filename C:\oan\29 - Otis Redding - (Sittin' On) The Dock Of The Bay.wav

     Peak level 93.1 %
     Track quality 99.9 %
     Test CRC FC903DD8
     Copy CRC FC903DD8
     Accurately ripped (confidence 2)  [2195CADE]
     Copy OK

All tracks accurately ripped

No errors occurred

End of status report
Приватный:
Нет (DHT включён)
Размер:
432.30 Мб (453,301,201 байт) » файлов: 44
Участники:
2 раздают, 1 качают (3 участников всего)
Внешние участники:
2 раздают, 1 качают (3 участников всего) [ Обновить ]
Скорость:
259.94 Кб/c 127.38 Кб/c
Никого нет на раздаче - пишите личное сообщение M0p94ok
No seeders - write personal message to M0p94ok
02:16
51
Нет комментариев. Ваш будет первым!